<?xml version="1.0" standalone="no"?>
<!DOCTYPE svg PUBLIC "-//W3C//DTD SVG 1.1//EN" "http://www.w3.org/Graphics/SVG/1.1/DTD/svg11.dtd" >
<svg xmlns="http://www.w3.org/2000/svg">
<metadata>Generated by IcoMoon</metadata>
<defs>
<font id="lc-fonts" horiz-adv-x="1024">
<font-face units-per-em="1024" ascent="960" descent="-64" />
<missing-glyph horiz-adv-x="1024" />
<glyph unicode="&#x20;" horiz-adv-x="512" d="" />
<glyph unicode="&#xe900;" glyph-name="age-18" d="M369.11 748.36c73.992 32.866 157.051 39.22 235.183 17.993 17.054-4.634 34.637 5.436 39.27 22.49s-5.436 34.637-22.49 39.271c-92.339 25.087-190.498 17.577-277.943-21.265s-158.827-106.64-202.117-191.97c-43.29-85.33-55.842-182.973-35.54-276.477s72.216-177.152 146.994-236.847c74.778-59.695 167.849-91.789 263.527-90.871 95.68 0.922 188.117 34.795 261.734 95.91 73.617 61.12 123.917 145.749 142.421 239.629 18.5 93.875 4.079 191.261-40.841 275.744-8.299 15.604-27.674 21.528-43.281 13.231-15.603-8.297-21.525-27.673-13.231-43.278 38.012-71.485 50.214-153.887 34.56-233.324-15.659-79.433-58.219-151.044-120.512-202.761-62.289-51.716-140.506-80.375-221.466-81.152s-159.71 26.377-222.984 76.89c-63.274 50.509-107.201 121.289-124.38 200.405-17.178 79.121-6.558 161.743 30.072 233.945s97.030 129.57 171.022 162.436zM736 821.333c-17.673 0-32-14.327-32-32v-42.667h-42.667c-17.673 0-32-14.327-32-32s14.327-32 32-32h42.667v-42.667c0-17.673 14.327-32 32-32s32 14.327 32 32v42.667h42.667c17.673 0 32 14.327 32 32s-14.327 32-32 32h-42.667v42.667c0 17.673-14.327 32-32 32zM680.764 434.309c14.711-7.351 25.886-16.973 33.523-28.851 7.919-11.883 11.878-25.6 11.878-41.156 0-18.389-5.231-34.513-15.697-48.371-10.466-13.581-25.178-24.188-44.13-31.825-18.953-7.356-40.875-11.034-65.766-11.034s-46.814 3.678-65.766 11.034c-18.671 7.637-33.237 18.244-43.703 31.825-10.185 13.858-15.279 29.982-15.279 48.371 0 15.556 3.823 29.274 11.46 41.156 7.919 11.878 19.093 21.5 33.519 28.851-11.034 6.788-19.52 15.275-25.459 25.459-5.939 10.466-8.909 22.349-8.909 35.644 0 17.254 4.809 32.246 14.426 44.975s23.053 22.488 40.307 29.277c17.254 7.072 37.056 10.608 59.405 10.608 22.63 0 42.573-3.536 59.827-10.608 17.536-6.789 31.117-16.548 40.734-29.277s14.426-27.721 14.426-44.975c0-13.295-2.97-25.178-8.909-35.644-5.943-10.185-14.571-18.671-25.886-25.459zM600.572 529.779c-13.862 0-25.037-3.395-33.519-10.183-8.205-6.506-12.305-15.557-12.305-27.158 0-11.311 4.1-20.224 12.305-26.731 8.201-6.507 19.375-9.758 33.519-9.758s25.459 3.251 33.946 9.758c8.486 6.507 12.727 15.42 12.727 26.731 0 11.601-4.241 20.652-12.727 27.158-8.486 6.789-19.802 10.183-33.946 10.183zM600.572 323.567c17.254 0 30.831 3.819 40.734 11.456 10.18 7.919 15.275 18.385 15.275 31.398 0 13.009-5.094 23.334-15.275 30.972-9.903 7.637-23.479 11.456-40.734 11.456-16.973 0-30.409-3.819-40.311-11.456-9.899-7.637-14.848-17.963-14.848-30.972 0-13.295 4.949-23.761 14.848-31.398 9.903-7.637 23.339-11.456 40.311-11.456zM425.953 575.18v-297.014h-68.738v241.854h-59.403v55.16h128.141z" />
<glyph unicode="&#xe901;" glyph-name="age-21" d="M369.11 748.36c73.992 32.866 157.051 39.22 235.183 17.993 17.054-4.634 34.637 5.436 39.27 22.49s-5.436 34.637-22.49 39.271c-92.339 25.087-190.498 17.577-277.943-21.265s-158.827-106.64-202.117-191.97c-43.29-85.33-55.842-182.973-35.54-276.477s72.216-177.152 146.994-236.847c74.778-59.695 167.849-91.789 263.527-90.871 95.68 0.922 188.117 34.795 261.734 95.91 73.617 61.12 123.917 145.749 142.421 239.629 18.5 93.875 4.079 191.261-40.841 275.744-8.299 15.604-27.674 21.528-43.281 13.231-15.603-8.297-21.525-27.673-13.231-43.278 38.012-71.485 50.214-153.887 34.56-233.324-15.659-79.433-58.219-151.044-120.512-202.761-62.289-51.716-140.506-80.375-221.466-81.152s-159.71 26.377-222.984 76.89c-63.274 50.509-107.201 121.289-124.38 200.405-17.178 79.121-6.558 161.743 30.072 233.945s97.030 129.57 171.022 162.436zM736 821.333c-17.673 0-32-14.327-32-32v-42.667h-42.667c-17.673 0-32-14.327-32-32s14.327-32 32-32h42.667v-42.667c0-17.673 14.327-32 32-32s32 14.327 32 32v42.667h42.667c17.673 0 32 14.327 32 32s-14.327 32-32 32h-42.667v42.667c0 17.673-14.327 32-32 32zM705.681 575.101v-302.021h-69.897v245.931h-60.403v56.090h130.3zM560.341 330.023v-56.951h-228.241v45.303l116.493 110.020c12.369 11.797 20.71 21.862 25.028 30.204 4.314 8.631 6.468 17.114 6.468 25.455 0 12.083-4.169 21.286-12.51 27.614-8.055 6.617-19.994 9.925-35.81 9.925-13.233 0-25.171-2.589-35.814-7.767-10.642-4.889-19.559-12.369-26.75-22.434l-50.912 32.789c11.793 17.546 28.045 31.209 48.755 40.989 20.71 10.067 44.44 15.101 71.189 15.101 22.438 0 41.997-3.739 58.679-11.218 16.973-7.191 30.059-17.546 39.262-31.065 9.493-13.232 14.242-28.906 14.242-47.031 0-16.393-3.452-31.782-10.355-46.165s-20.279-30.775-40.128-49.186l-69.466-65.583h129.869z" />
<glyph unicode="&#xe902;" glyph-name="ambulance-2" d="M512 778.667c-194.404 0-352-157.596-352-352 0-194.402 157.596-352 352-352 194.402 0 352 157.598 352 352 0 194.404-157.598 352-352 352zM96 426.667c0 229.751 186.249 416 416 416s416-186.249 416-416c0-229.751-186.249-416-416-416s-416 186.249-416 416zM320.021 426.667c0-17.673 14.327-32 32-32h320c17.673 0 32 14.327 32 32s-14.327 32-32 32h-320c-17.673 0-32-14.327-32-32z" />
<glyph unicode="&#xe903;" glyph-name="ambulance" d="M512 778.667c-194.404 0-352-157.596-352-352 0-194.402 157.596-352 352-352 194.402 0 352 157.598 352 352 0 194.404-157.598 352-352 352zM96 426.667c0 229.751 186.249 416 416 416s416-186.249 416-416c0-229.751-186.249-416-416-416s-416 186.249-416 416zM512.021 618.667c-17.673 0-32-14.327-32-32v-128h-128c-17.673 0-32-14.327-32-32s14.327-32 32-32h128v-128c0-17.673 14.327-32 32-32s32 14.327 32 32v128h128c17.673 0 32 14.327 32 32s-14.327 32-32 32h-128v128c0 17.673-14.327 32-32 32z" />
<glyph unicode="&#xe904;" glyph-name="arrow-down-up" d="M305.529 810.25c-21.797 0-39.467-17.67-39.467-39.467v-592.944l-70.272 70.272c-15.413 15.411-40.401 15.411-55.814 0-15.412-15.415-15.412-40.405 0-55.817l137.645-137.643c7.401-7.403 17.44-11.563 27.907-11.563s20.506 4.16 27.907 11.563l137.647 137.643c15.411 15.411 15.411 40.401 0 55.817-15.415 15.411-40.401 15.411-55.816 0l-70.272-70.272v592.944c0 21.797-17.67 39.467-39.467 39.467zM690.551 798.691l-137.643-137.645c-15.415-15.413-15.415-40.402 0-55.814 15.411-15.413 40.401-15.413 55.812 0l70.272 70.272v-592.947c0-21.794 17.668-39.467 39.467-39.467s39.467 17.673 39.467 39.467v592.947l70.272-70.272c15.411-15.413 40.401-15.413 55.812 0 15.415 15.412 15.415 40.401 0 55.814l-137.643 137.645c-15.415 15.412-40.401 15.412-55.817 0z" />
<glyph unicode="&#xe905;" glyph-name="arrow-down" d="M196.104 390.571c15.413 15.415 40.402 15.415 55.814 0l220.628-220.625v608.72c0 21.797 17.668 39.467 39.467 39.467 21.794 0 39.467-17.67 39.467-39.467v-608.72l220.625 220.625c15.411 15.415 40.401 15.415 55.812 0 15.415-15.411 15.415-40.401 0-55.812l-288-288c-15.411-15.411-40.401-15.411-55.812 0l-288.001 288c-15.412 15.411-15.412 40.401 0 55.812z" />
<glyph unicode="&#xe906;" glyph-name="arrow-download" d="M512.009 850.136c-21.798 0-39.467-17.67-39.467-39.467v-512.719l-220.626 220.626c-15.412 15.413-40.401 15.413-55.814 0s-15.412-40.402 0-55.813l287.999-288c15.415-15.415 40.401-15.415 55.817 0l288 288c15.411 15.411 15.411 40.401 0 55.813-15.415 15.413-40.401 15.413-55.817 0l-220.625-220.626v512.719c0 21.797-17.668 39.467-39.467 39.467zM120.542 74.667c0-21.794 17.67-39.462 39.467-39.462h704c21.798 0 39.467 17.668 39.467 39.462 0 21.798-17.668 39.467-39.467 39.467h-704c-21.797 0-39.467-17.668-39.467-39.467z" />
<glyph unicode="&#xe907;" glyph-name="arrow-left" d="M475.917 742.576c15.411-15.412 15.411-40.401 0-55.814l-220.628-220.628h608.719c21.798 0 39.467-17.668 39.467-39.467 0-21.794-17.668-39.467-39.467-39.467h-608.719l220.628-220.625c15.411-15.411 15.411-40.401 0-55.812-15.415-15.415-40.401-15.415-55.816 0l-288 288c-15.412 15.411-15.412 40.401 0 55.812l288 288.001c15.415 15.413 40.4 15.413 55.816 0z" />
<glyph unicode="&#xe908;" glyph-name="arrow-right" d="M548.1 742.576c15.415 15.413 40.401 15.413 55.817 0l288-288.001c15.411-15.411 15.411-40.401 0-55.812l-288-288c-15.415-15.415-40.401-15.415-55.817 0-15.411 15.411-15.411 40.401 0 55.812l220.625 220.625h-608.717c-21.797 0-39.467 17.673-39.467 39.467 0 21.798 17.67 39.467 39.467 39.467h608.717l-220.625 220.628c-15.411 15.412-15.411 40.401 0 55.814z" />
<glyph unicode="&#xe909;" glyph-name="arrow-up" d="M827.917 462.759c-15.411-15.411-40.401-15.411-55.812 0l-220.625 220.626v-608.718c0-21.798-17.673-39.467-39.467-39.467-21.798 0-39.467 17.668-39.467 39.467v608.718l-220.628-220.626c-15.413-15.411-40.401-15.411-55.814 0s-15.412 40.401 0 55.814l288 288c15.411 15.412 40.401 15.412 55.812 0l288-288c15.415-15.413 15.415-40.403 0-55.814z" />
<glyph unicode="&#xe90a;" glyph-name="bell" d="M510.711 778.663c73.835-0.597 131.614-30.763 173.495-77.404 51.712-57.585 79.927-141.406 79.927-226.686 0-154.679 30.857-247.573 60.356-301.090 0.218-0.397 0.418-1.007 0.431-1.801 0.009-0.474-0.051-0.879-0.132-1.199h-181.402c-1.114 0.119-2.244 0.179-3.388 0.179-1.148 0-2.278-0.060-3.392-0.179h-442.647c-0.051 0.081-0.106 0.175-0.163 0.286-0.346 0.653-0.522 1.387-0.534 1.984-0.009 0.482 0.084 0.678 0.106 0.721 29.497 53.521 60.362 146.441 60.362 301.099 0 88.236 18.26 165.783 75.789 225.952 47.846 50.043 114.379 78.519 181.19 78.138zM668.732 106.484h156.203c26.927 0 47.36 15.219 57.195 35.405 9.293 19.076 9.306 42.667-1.553 62.426-23.3 42.27-52.442 124.143-52.442 270.259 0 98.133-32.243 198.103-96.307 269.447-53.158 59.199-127.706 97.902-220.642 98.641h-0.064c-84.924 0.496-168.189-35.498-227.859-97.908-73.549-76.926-93.53-173.687-93.53-270.18 0-146.116-29.125-227.959-52.424-270.225-11.633-21.163-9.736-45.265-0.078-63.518 9.811-18.539 29.466-34.249 55.584-34.347h162.422c6.237-30.473 21.303-58.637 43.625-80.96 30.007-30.003 70.703-46.861 113.139-46.861 42.432 0 83.127 16.858 113.135 46.861 22.306 22.306 37.346 50.517 43.597 80.96zM602.445 106.484c-4.732-13.303-12.39-25.527-22.566-35.703-18.001-18.005-42.419-28.117-67.878-28.117-25.463 0-49.882 10.112-67.883 28.117-10.214 10.214-17.878 22.421-22.604 35.703h180.931z" />
<glyph unicode="&#xe90b;" glyph-name="betting-school" d="M288.104 778.667h127.948v-352c0-12.122 6.848-23.198 17.689-28.621 10.837-5.423 23.812-4.254 33.506 3.017l108.762 81.553 108.804-81.553c9.698-7.27 22.669-8.435 33.506-3.017 10.842 5.423 17.685 16.503 17.685 28.621v352h64v-608.047h-511.9c-23.314 0-45.173-6.234-64-17.122v561.169c0 35.346 28.654 64 64 64zM480.051 778.667h191.953v-288.021l-76.809 57.569c-11.375 8.527-27.012 8.526-38.387-0.003l-76.757-57.553v288.009zM224.104 42.667c0.025 35.324 28.669 63.953 64 63.953h543.9c17.673 0 32 14.327 32 32v672.047c0 17.673-14.327 32-32 32h-543.9c-70.692 0-128-57.308-128-128v-704c0-17.673 14.327-32 32-32h575.9c17.673 0 32 14.327 32 32s-14.327 32-32 32h-543.9z" />
<glyph unicode="&#xe90c;" glyph-name="bettingcenter" d="M242.836 745.585c79.933 67.218 182.188 101.978 286.525 97.4 93.619-4.108 182.797-39.616 253.397-100.296l90.607 90.61c12.497 12.497 32.759 12.497 45.257 0s12.497-32.758 0-45.255l-112.282-112.28c-0.047-0.051-0.098-0.103-0.149-0.154-0.030-0.028-0.060-0.056-0.085-0.084l-271.484-271.481c-12.497-12.497-32.759-12.497-45.252 0-12.497 12.497-12.497 32.755 0 45.252l110.639 110.643c-21.841 14.365-47.023 23.24-73.387 25.615-37.154 3.347-74.304-6.426-105.002-27.621s-53.001-52.476-63.035-88.401c-10.035-35.93-7.167-74.24 8.105-108.275 15.272-34.031 41.983-61.641 75.495-78.033 33.51-16.388 71.701-20.518 107.942-11.678s68.241 30.097 90.441 60.075c22.199 29.982 33.195 66.79 31.078 104.034-1.003 17.643 12.489 32.759 30.131 33.762 17.647 1.003 32.764-12.489 33.766-30.131 2.965-52.177-12.442-103.748-43.541-145.749-31.104-42.001-75.934-71.782-126.707-84.169s-104.282-6.596-151.229 16.367c-46.949 22.959-84.371 61.641-105.767 109.325-21.396 47.68-25.414 101.35-11.354 151.689 14.059 50.335 45.305 94.156 88.312 123.851 43.006 29.695 95.055 43.386 147.108 38.697 41.348-3.725 80.623-18.862 113.574-43.427l91.409 91.41c-59.162 49.452-133.171 78.359-210.79 81.765-88.32 3.875-174.872-25.548-242.531-82.444s-111.492-137.12-122.824-224.794c-11.332-87.671 10.664-176.405 61.633-248.636 50.969-72.226 127.198-122.688 213.597-141.397s176.674-4.297 252.958 40.38 133.013 116.365 158.959 200.87c25.95 84.51 19.23 175.68-18.837 255.468-7.607 15.951-0.845 35.051 15.104 42.66 15.953 7.61 35.051 0.848 42.662-15.103 44.966-94.263 52.911-201.971 22.255-301.811-30.656-99.836-97.677-184.529-187.797-237.308-90.121-52.783-196.77-69.807-298.845-47.706-102.074 22.101-192.131 81.715-252.346 167.049s-86.201 190.161-72.814 293.739c13.387 103.577 65.172 198.353 145.105 265.571z" />
<glyph unicode="&#xe90d;" glyph-name="bingo1" d="M406.173 552.081c0-36.894-29.908-66.803-66.803-66.803s-66.803 29.909-66.803 66.803c0 36.895 29.909 66.804 66.803 66.804s66.803-29.909 66.803-66.804zM689.873 431.173c36.873 0 66.761 29.888 66.761 66.761 0 36.869-29.888 66.758-66.761 66.758-36.868 0-66.756-29.889-66.756-66.758 0-36.873 29.888-66.761 66.756-66.761zM603.238 672.214c0-36.842-29.867-66.708-66.709-66.708s-66.709 29.867-66.709 66.708c0 36.842 29.867 66.708 66.709 66.708s66.709-29.866 66.709-66.708zM290.165 199.945c-86.652 66.603-142.502 171.302-142.502 289.041 0 201.224 163.124 364.348 364.345 364.348 201.225 0 364.348-163.124 364.348-364.348 0-117.739-55.846-222.434-142.498-289.041l86.528-135.974h65.54c17.664 0 31.983-14.319 31.983-31.983s-14.319-31.983-31.983-31.983h-82.483c-0.388-0.004-0.777-0.004-1.165 0h-580.531c-0.389-0.004-0.778-0.004-1.167 0h-82.472c-17.664 0-31.983 14.319-31.983 31.983s14.319 31.983 31.983 31.983h65.53l86.527 135.974zM211.63 488.986c0-95.044 44.142-179.776 113.042-234.816l160.358 251.989c5.871 9.225 16.047 14.811 26.982 14.811s21.111-5.587 26.982-14.811l160.354-251.989c68.902 55.040 113.041 139.776 113.041 234.816 0 165.897-134.485 300.381-300.382 300.381-165.894 0-300.379-134.485-300.379-300.381zM279.457 63.97h465.11l-64.644 101.585c-50.249-26.142-107.358-40.913-167.915-40.913s-117.661 14.771-167.909 40.909l-64.643-101.581zM645.414 219.781l-133.402 209.634-133.405-209.634c40.191-19.955 85.486-31.172 133.4-31.172 47.919 0 93.214 11.217 133.406 31.172z" />
<glyph unicode="&#xe90e;" glyph-name="block" d="M241.495 651.917c-50.883-61.040-81.495-139.57-81.495-225.25 0-194.402 157.596-352 352-352 85.679 0 164.211 30.613 225.25 81.493l-495.755 495.756zM286.75 697.172l495.756-495.755c50.88 61.039 81.493 139.571 81.493 225.25 0 194.404-157.598 352-352 352-85.68 0-164.21-30.612-225.25-81.495zM96 426.667c0 229.751 186.249 416 416 416s416-186.249 416-416c0-229.751-186.249-416-416-416s-416 186.249-416 416z" />
<glyph unicode="&#xe90f;" glyph-name="blog" d="M225.147 714.585c-0.009-0.006 0.010 0.007 0 0h669.070c-0.009 0.007 0.009-0.006 0 0 0.064-0.043 0.154-0.118 0.269-0.239 0.491-0.525 1.109-1.675 1.109-3.291v-540.341c0-17.677-14.327-32-32-32h-645.056c3.39 9.775 5.232 20.275 5.232 31.202v541.139c0 1.617 0.62 2.766 1.111 3.291 0.113 0.121 0.205 0.196 0.266 0.239zM863.595 74.714c53.018 0 96 42.978 96 96v540.341c0 17.24-6.379 34.175-18.347 46.984-12.036 12.883-28.843 20.566-46.869 20.566h-669.393c-18.025 0-34.833-7.684-46.869-20.566-11.967-12.809-18.346-29.744-18.346-46.984v-541.139c0-17.233-13.971-31.202-31.206-31.202h-0.606c-17.673 0-32 14.323-32 32v448.124c0 17.673-14.327 32-32 32s-32-14.327-32-32v-448.124c0-53.022 42.981-96 96-96h735.636zM320.010 554.865c0-17.673 14.327-32 32-32h416.131c17.673 0 32 14.327 32 32s-14.327 32-32 32h-416.131c-17.673 0-32-14.327-32-32zM320.010 426.658c0-17.673 14.327-32 32-32h416.131c17.673 0 32 14.327 32 32s-14.327 32-32 32h-416.131c-17.673 0-32-14.327-32-32zM320.010 298.274c0-17.673 14.327-32 32-32h416.131c17.673 0 32 14.327 32 32s-14.327 32-32 32h-416.131c-17.673 0-32-14.327-32-32z" />
<glyph unicode="&#xe910;" glyph-name="bonus-raiting" d="M540.651 536.005c-9.673 24.090-43.776 24.090-53.453 0l-38.511-95.907c-0.764-1.899-2.547-3.196-4.587-3.332l-103.115-6.993c-25.9-1.754-36.439-34.189-16.518-50.833l79.311-66.266c1.571-1.31 2.252-3.409 1.753-5.393l-25.214-100.228c-6.333-25.173 21.257-45.218 43.243-31.415l87.531 54.95c1.732 1.088 3.938 1.088 5.67 0l87.531-54.95c21.986-13.803 49.574 6.242 43.243 31.415l-25.216 100.228c-0.499 1.984 0.183 4.083 1.754 5.393l79.309 66.266c19.921 16.644 9.387 49.079-16.516 50.833l-103.113 6.993c-2.044 0.137-3.827 1.434-4.587 3.332l-38.515 95.907zM498.18 420.224l15.744 39.215 15.748-39.215c8.393-20.898 28.002-35.145 50.47-36.668l42.159-2.859-32.427-27.093c-17.28-14.438-24.772-37.495-19.277-59.337l10.308-40.977-35.789 22.468c-19.072 11.972-43.315 11.972-62.387 0l-35.789-22.468 10.313 40.977c5.491 21.841-1.997 44.898-19.281 59.337l-32.427 27.093 42.159 2.859c22.468 1.523 42.082 15.77 50.475 36.668zM399.312 859.729c-33.992 0-66.592-13.503-90.627-37.539s-37.539-56.636-37.539-90.627c0-29.515 10.18-57.98 28.596-80.701h-110.046c-36.276 0-61.3-31.089-61.3-63.806v-128.722c0-22.916 12.279-45.039 32.104-56.23v-263.573c0-16.977 6.743-33.254 18.745-45.257s28.281-18.743 45.255-18.743h575.999c16.973 0 33.254 6.741 45.257 18.743s18.743 28.279 18.743 45.257v264.154c19.234 11.362 31.104 33.122 31.104 55.65v128.722c0 32.716-25.024 63.806-61.303 63.806h-109.018c18.415 22.721 28.595 51.186 28.595 80.701 0 33.992-13.504 66.592-37.538 90.627-24.038 24.036-56.636 37.539-90.628 37.539s-66.594-13.503-90.628-37.539l-0.098-0.1c-9.233-9.314-16.572-20.518-22.473-32.294-5.901 11.776-13.239 22.98-22.473 32.294l-0.098 0.1c-24.038 24.036-56.636 37.539-90.629 37.539zM505.852 586.46c2.035-0.047 3.644-0.072 4.774-0.084l1.949-0.013h0.115l0.38 0.002 1.327 0.011c1.126 0.012 2.735 0.037 4.77 0.084 3.029 0.070 7.006 0.192 11.746 0.402h300.689v-128.332h-31.104v-320h-575.999v320h-32.104v128.332h301.71c4.745-0.21 8.721-0.332 11.746-0.402zM581.491 655.692c-12.762-1.821-24.947-3.023-35.469-3.816 0.794 10.519 1.997 22.707 3.819 35.467 2.671 18.728 6.566 37.913 12.105 54.577 5.705 17.166 12.22 28.765 18.449 35.070 12.028 11.999 28.322 18.739 45.316 18.739 17.015 0 33.34-6.76 45.372-18.794s18.795-28.355 18.795-45.373c0-16.993-6.741-33.291-18.739-45.319-6.306-6.226-17.907-12.741-35.072-18.445-16.661-5.538-35.849-9.434-54.575-12.106zM475.183 687.343c1.818-12.76 3.021-24.948 3.814-35.467-10.517 0.793-22.707 1.996-35.465 3.816-18.729 2.672-37.914 6.568-54.578 12.106-17.164 5.705-28.762 12.219-35.068 18.445-12 12.029-18.741 28.326-18.741 45.319 0 17.018 6.761 33.339 18.794 45.373s28.355 18.794 45.373 18.794c16.994 0 33.294-6.741 45.321-18.742 6.225-6.306 12.74-17.904 18.445-35.067 5.538-16.664 9.434-35.849 12.105-54.577z" />
<glyph unicode="&#xe911;" glyph-name="bonus" d="M308.175 822.482c-24.036-24.036-37.539-56.636-37.539-90.627 0-29.728 10.328-58.392 28.998-81.193h-121.052c-36.026 0-62.31-30.312-62.31-64v-127.999c0-27.563 17.594-52.868 43.724-61.158v-258.842c0-16.973 6.743-33.254 18.745-45.257s28.281-18.743 45.255-18.743h576.001c16.973 0 33.25 6.741 45.252 18.743s18.748 28.284 18.748 45.257v258.846c26.129 8.29 43.721 33.591 43.721 61.154v127.999c0 33.688-26.283 64-62.31 64h-121.041c18.667 22.801 28.996 51.465 28.996 81.193 0 33.992-13.504 66.591-37.538 90.627-24.038 24.036-56.636 37.539-90.628 37.539s-66.59-13.503-90.628-37.539l-0.098-0.1c-9.233-9.312-16.572-20.514-22.468-32.288-5.901 11.774-13.239 22.976-22.473 32.288l-0.098 0.1c-24.034 24.036-56.636 37.539-90.627 37.539s-66.592-13.503-90.627-37.539zM479.996 586.662v-127.999h-299.725v127.999h299.725zM479.996 394.663v-256h-256.001v256h256.001zM543.996 138.663v256h256v-256h-256zM543.996 458.663v127.999h299.721v-127.999h-299.721zM478.485 652.173c-10.522 0.792-22.707 1.994-35.469 3.814-18.726 2.671-37.911 6.566-54.574 12.104-17.163 5.704-28.761 12.218-35.067 18.444-12 12.028-18.74 28.326-18.74 45.319 0 17.018 6.76 33.339 18.794 45.373s28.355 18.794 45.373 18.794c16.993 0 33.292-6.741 45.32-18.742 6.225-6.306 12.74-17.903 18.445-35.066 5.538-16.663 9.429-35.847 12.105-54.575 1.818-12.76 3.021-24.947 3.814-35.466zM545.506 652.173c0.794 10.519 1.997 22.705 3.819 35.465 2.671 18.727 6.566 37.911 12.105 54.575 5.705 17.164 12.22 28.763 18.449 35.069 12.028 11.999 28.326 18.739 45.316 18.739 17.020 0 33.34-6.761 45.372-18.794 12.036-12.034 18.795-28.355 18.795-45.373 0-16.993-6.741-33.291-18.739-45.319-6.306-6.226-17.903-12.74-35.068-18.444-16.666-5.538-35.849-9.433-54.579-12.104-12.757-1.82-24.947-3.022-35.469-3.814z" />
<glyph unicode="&#xe912;" glyph-name="book-2" d="M197.49 805.177c24.005 24.005 56.562 37.49 90.51 37.49h544c17.673 0 32-14.327 32-32v-640c0-17.673-14.327-32-32-32h-544c-16.974 0-33.253-6.741-45.255-18.743s-18.745-28.284-18.745-45.257h544c17.673 0 32-14.327 32-32s-14.327-32-32-32h-576c-17.673 0-32 14.327-32 32v672c0 33.948 13.486 66.505 37.49 90.509zM224 185.519c19.293 11.136 41.337 17.148 64 17.148h512v576.001h-512c-16.974 0-33.253-6.743-45.255-18.745s-18.745-28.281-18.745-45.255v-529.148zM351.98 554.667c0-17.673 14.327-32 32-32h255.995c17.673 0 32 14.327 32 32s-14.327 32-32 32h-255.995c-17.673 0-32-14.327-32-32zM351.98 426.667c0-17.673 14.327-32 32-32h255.995c17.673 0 32 14.327 32 32s-14.327 32-32 32h-255.995c-17.673 0-32-14.327-32-32z" />
<glyph unicode="&#xe913;" glyph-name="book" d="M512 642.296c19.883 0 36.002 16.118 36.002 36s-16.119 36-36.002 36c-19.883 0-36.002-16.118-36.002-36s16.119-36 36.002-36zM197.49 805.177c24.005 24.005 56.562 37.49 90.51 37.49h544c17.673 0 32-14.327 32-32v-640c0-17.673-14.327-32-32-32h-544c-16.974 0-33.253-6.741-45.255-18.743s-18.745-28.284-18.745-45.257h544c17.673 0 32-14.327 32-32s-14.327-32-32-32h-576c-17.673 0-32 14.327-32 32v672c0 33.948 13.486 66.505 37.49 90.51zM224 185.519c19.293 11.136 41.337 17.148 64 17.148h512v576h-512c-16.974 0-33.253-6.743-45.255-18.745s-18.745-28.281-18.745-45.255v-529.148zM448 534.296c0-17.673 14.327-31.998 32-31.998v-192c0-17.677 14.327-32 32-32h32c17.673 0 32 14.323 32 32 0 17.673-14.327 32-32 32v191.998c0 17.673-14.327 32-32 32h-32c-17.673 0-32-14.327-32-32z" />
<glyph unicode="&#xe914;" glyph-name="calendar" d="M320 874.667c17.673 0 32-14.327 32-32v-32h320v32c0 17.673 14.327 32 32 32s32-14.327 32-32v-32h96c35.345 0 64-28.654 64-64v-640c0-35.345-28.655-64-64-64h-640c-35.346 0-64 28.655-64 64v640c0 35.346 28.654 64 64 64h96v32c0 17.673 14.327 32 32 32zM288 746.667h-96v-128h640v128h-96v-32c0-17.673-14.327-32-32-32s-32 14.327-32 32v32h-320v-32c0-17.673-14.327-32-32-32s-32 14.327-32 32v32zM832 554.667h-640v-448h640v448z" />
<glyph unicode="&#xe915;" glyph-name="card-view" d="M160 714.667c0 35.346 28.654 64 64 64h192c35.345 0 64-28.654 64-64v-192c0-35.345-28.655-64-64-64h-192c-35.346 0-64 28.655-64 64v192zM416 714.667h-192v-192h192v192zM544 714.667c0 35.346 28.655 64 64 64h192c35.345 0 64-28.654 64-64v-192c0-35.345-28.655-64-64-64h-192c-35.345 0-64 28.655-64 64v192zM800 714.667h-192v-192h192v192zM160 330.667c0 35.345 28.654 64 64 64h192c35.345 0 64-28.655 64-64v-192c0-35.345-28.655-64-64-64h-192c-35.346 0-64 28.655-64 64v192zM416 330.667h-192v-192h192v192zM544 330.667c0 35.345 28.655 64 64 64h192c35.345 0 64-28.655 64-64v-192c0-35.345-28.655-64-64-64h-192c-35.345 0-64 28.655-64 64v192zM800 330.667h-192v-192h192v192z" />
<glyph unicode="&#xe916;" glyph-name="casino-diler1" d="M512.004 100.664l213.333 69.999v-213.333l-213.333 69.999-213.333-69.999v213.333l213.333-69.999zM237.646 555.287l379.092 142.159 166.323-124.745c-27.686 124.18-138.53 217.007-271.057 217.007-138.65 0-253.569-101.606-274.358-234.422zM788.732 488.448l-182.349 136.763-370.902-139.089c13.049-141.248 131.871-251.84 276.524-251.84 145.446 0 264.777 111.808 276.727 254.165zM170.292 511.996c0 188.722 152.99 341.713 341.713 341.713s341.713-152.99 341.713-341.713c0-188.723-152.99-341.713-341.713-341.713s-341.713 152.99-341.713 341.713z" />
<glyph unicode="&#xe917;" glyph-name="casino1" d="M256 746.667c-35.346 0-64-28.654-64-64v-512c0-35.345 28.654-64 64-64h512c35.345 0 64 28.655 64 64v512c0 35.346-28.655 64-64 64h-512zM128 682.667c0 70.692 57.308 128 128 128h512c70.694 0 128-57.308 128-128v-512c0-70.694-57.306-128-128-128h-512c-70.692 0-128 57.306-128 128v512zM368 522.667c26.51 0 48 21.49 48 48s-21.49 48-48 48c-26.51 0-48-21.49-48-48s21.49-48 48-48zM656 522.667c26.509 0 48 21.49 48 48s-21.491 48-48 48c-26.509 0-48-21.49-48-48s21.491-48 48-48zM368 234.667c26.51 0 48 21.491 48 48s-21.49 48-48 48c-26.51 0-48-21.491-48-48s21.49-48 48-48zM512 378.667c26.509 0 48 21.491 48 48s-21.491 48-48 48c-26.509 0-48-21.491-48-48s21.491-48 48-48zM656 234.667c26.509 0 48 21.491 48 48s-21.491 48-48 48c-26.509 0-48-21.491-48-48s21.491-48 48-48z" />
<glyph unicode="&#xe918;" glyph-name="chartbar" d="M592 778.563c0 17.673 14.327 32 32 32h224c17.673 0 32-14.327 32-32v-639.892h31.923c17.673 0 32-14.327 32-32s-14.327-32-32-32h-800.090c-17.673 0-32 14.327-32 32s14.327 32 32 32h32.167v256.098c0 17.673 14.327 32 32 32h192v159.959c0 17.673 14.327 32 32 32h192v159.835zM592 554.728h-160v-416.057h160v416.057zM656 138.671h160v607.892h-160v-607.892zM368 138.671v224.098h-160v-224.098h160z" />
<glyph unicode="&#xe919;" glyph-name="check" d="M891.917 678.576c15.411-15.413 15.411-40.402 0-55.814l-448-447.981c-15.415-15.411-40.401-15.411-55.814 0l-224 223.979c-15.413 15.415-15.415 40.401-0.003 55.817 15.412 15.411 40.401 15.415 55.814 0.004l196.093-196.079 420.093 420.076c15.415 15.412 40.405 15.412 55.817-0.001z" />
<glyph unicode="&#xe91a;" glyph-name="circle-e" d="M512 778.667c-194.404 0-352-157.596-352-352 0-194.402 157.596-352 352-352 194.402 0 352 157.598 352 352 0 194.404-157.598 352-352 352zM96 426.667c0 229.751 186.249 416 416 416s416-186.249 416-416c0-229.751-186.249-416-416-416s-416 186.249-416 416zM512 650.667c-17.673 0-32-14.327-32-32v-224c0-17.673 14.327-32 32-32s32 14.327 32 32v224c0 17.673-14.327 32-32 32zM512 202.667c26.509 0 48 21.491 48 48s-21.491 48-48 48c-26.509 0-48-21.491-48-48s21.491-48 48-48z" />
<glyph unicode="&#xe91b;" glyph-name="circle-i" d="M512 554.667c23.565 0 42.667 19.103 42.667 42.667s-19.102 42.667-42.667 42.667c-23.565 0-42.667-19.103-42.667-42.667s19.102-42.667 42.667-42.667zM512 778.667c-194.404 0-352-157.596-352-352 0-194.402 157.596-352 352-352 194.402 0 352 157.598 352 352 0 194.404-157.598 352-352 352zM96 426.667c0 229.751 186.249 416 416 416s416-186.249 416-416c0-229.751-186.249-416-416-416s-416 186.249-416 416zM437.333 458.667c0-17.673 14.327-32 32-32h10.667v-160h-10.667c-17.673 0-32-14.327-32-32s14.327-32 32-32h85.333c17.673 0 32 14.327 32 32s-14.327 32-32 32h-10.667v192c0 17.673-14.327 32-32 32h-42.667c-17.673 0-32-14.327-32-32z" />
<glyph unicode="&#xe91c;" glyph-name="circle-q" d="M512 178.667c22.093 0 40 17.907 40 40s-17.907 40-40 40c-22.093 0-40-17.907-40-40s17.907-40 40-40zM512 778.667c-194.404 0-352-157.596-352-352 0-194.402 157.596-352 352-352 194.402 0 352 157.598 352 352 0 194.404-157.598 352-352 352zM96 426.667c0 229.751 186.249 416 416 416s416-186.249 416-416c0-229.751-186.249-416-416-416s-416 186.249-416 416zM456.892 639.706c-26.313-10.899-48.8-29.356-64.623-53.036s-24.268-51.522-24.268-80.002c0-17.673 14.327-32 32-32s32 14.327 32 32c0 15.823 4.693 31.29 13.483 44.445s21.286 23.41 35.904 29.465c14.618 6.055 30.703 7.639 46.221 4.553s29.773-10.706 40.96-21.894c11.187-11.188 18.807-25.443 21.897-40.961 3.085-15.517 1.502-31.603-4.553-46.22s-16.311-27.115-29.466-35.904c-13.154-8.789-28.625-13.483-44.446-13.483-17.673 0-32-14.327-32-32v-32c0-17.673 14.327-32 32-32s32 14.327 32 32v3.601c17.041 3.883 33.323 10.859 48 20.668 23.684 15.821 42.138 38.31 53.039 64.623 10.897 26.313 13.751 55.266 8.196 83.201-5.559 27.933-19.273 53.591-39.411 73.73s-45.798 33.853-73.732 39.41c-27.934 5.556-56.887 2.705-83.2-8.195z" />
<glyph unicode="&#xe91d;" glyph-name="claim" d="M808.909 909.188c-17.673 0-32-14.327-32-32v-60.34c0-17.673 14.327-32 32-32 17.677 0 32 14.327 32 32v60.34c0 17.673-14.323 32-32 32zM946.756 854.638c-12.497 12.497-32.755 12.497-45.252 0l-42.667-42.667c-12.497-12.497-12.497-32.758 0-45.255s32.755-12.497 45.252 0l42.667 42.667c12.497 12.497 12.497 32.758 0 45.255zM671.693 854.636c-12.497-12.494-12.501-32.755-0.009-45.255l42.667-42.688c12.493-12.5 32.755-12.505 45.252-0.011 12.501 12.494 12.506 32.755 0.013 45.255l-42.667 42.687c-12.493 12.5-32.755 12.505-45.257 0.011zM696.858 604.741c120.802-120.802 120.802-316.659 0-437.461-120.802-120.806-316.659-120.806-437.461 0-120.802 120.802-120.802 316.659 0 437.461s316.659 120.802 437.461 0zM763.785 626.412l69.504 69.506c12.497 12.497 12.497 32.758 0 45.255s-32.755 12.497-45.252 0l-69.504-69.505c-146.684 123.726-366.217 116.502-504.391-21.671-145.796-145.795-145.796-382.176 0-527.973s382.176-145.796 527.973 0c138.176 138.172 145.399 357.709 21.67 504.389zM878.076 717.891c0-17.673 14.327-32 32-32h60.339c17.673 0 32 14.327 32 32s-14.327 32-32 32h-60.339c-17.673 0-32-14.327-32-32zM863.68 662.64c-12.497-12.497-12.497-32.758 0-45.255l42.667-42.667c12.497-12.497 32.759-12.497 45.257 0s12.497 32.758 0 45.255l-42.667 42.667c-12.497 12.497-32.759 12.497-45.257 0zM452.766 604.283c-4.578 17.071-22.123 27.201-39.194 22.627-133.047-35.65-212.003-172.407-176.353-305.451 4.574-17.071 22.121-27.204 39.192-22.63s27.202 22.123 22.627 39.194c-26.502 98.906 32.193 200.567 131.097 227.068 17.071 4.574 27.204 22.121 22.63 39.192z" />
<glyph unicode="&#xe91e;" glyph-name="clock" d="M512 778.667c-194.404 0-352-157.596-352-352 0-194.402 157.596-352 352-352 194.402 0 352 157.598 352 352 0 194.404-157.598 352-352 352zM96 426.667c0 229.751 186.249 416 416 416s416-186.249 416-416c0-229.751-186.249-416-416-416s-416 186.249-416 416zM512 650.667c-17.673 0-32-14.327-32-32v-192c0-11.43 6.097-21.995 16-27.712l166.276-96c15.305-8.836 34.876-3.593 43.712 11.712s3.593 34.876-11.712 43.712l-150.276 86.763v173.525c0 17.673-14.327 32-32 32z" />
<glyph unicode="&#xe91f;" glyph-name="close-fill" d="M896 426.667c0-212.079-171.921-384-384-384-212.077 0-384 171.921-384 384 0 212.077 171.923 384 384 384 212.079 0 384-171.923 384-384zM406.627 577.294c-12.497 12.497-32.758 12.497-45.255 0s-12.497-32.758 0-45.255l105.371-105.373-105.371-105.374c-12.497-12.497-12.497-32.755 0-45.252s32.758-12.497 45.255 0l105.373 105.37 105.374-105.37c12.497-12.497 32.755-12.497 45.252 0s12.497 32.755 0 45.252l-105.37 105.374 105.37 105.373c12.497 12.497 12.497 32.758 0 45.255s-32.755 12.497-45.252 0l-105.374-105.371-105.373 105.371z" />
<glyph unicode="&#xe920;" glyph-name="close-stroke" d="M512 778.657c-194.404 0-352-157.596-352-351.998 0-194.406 157.596-352 352-352 194.402 0 352 157.594 352 352 0 194.403-157.598 351.998-352 351.998zM96 426.658c0 229.748 186.249 415.998 416 415.998s416-186.25 416-415.998c0-229.751-186.249-416-416-416s-416 186.249-416 416zM361.373 577.284c12.497 12.497 32.758 12.497 45.255 0l105.373-105.373 105.374 105.373c12.497 12.497 32.755 12.497 45.252 0s12.497-32.758 0-45.255l-105.37-105.371 105.37-105.374c12.497-12.497 12.497-32.759 0-45.257s-32.755-12.497-45.252 0l-105.374 105.374-105.373-105.374c-12.497-12.497-32.758-12.497-45.255 0s-12.497 32.759 0 45.257l105.371 105.374-105.371 105.371c-12.497 12.497-12.497 32.758 0 45.255z" />
<glyph unicode="&#xe921;" glyph-name="coach" d="M659.721 307.38c84.032 50.304 140.288 142.225 140.288 247.287 0 159.058-128.943 288-288 288-159.059 0-288.001-128.942-288.001-288 0-105.062 56.255-196.983 140.287-247.283-31.991-10.347-62.938-24.064-92.299-41.007-72.979-42.121-133.588-102.703-175.74-175.663-8.841-15.305-3.603-34.876 11.7-43.716s34.875-3.605 43.716 11.699c36.533 63.236 89.064 115.742 152.315 152.247 25.711 14.839 52.823 26.82 80.855 35.819l98.392-196.787c1.523-3.127 3.558-6.020 6.063-8.538 2.897-2.914 6.298-5.205 9.984-6.801 4.13-1.796 8.452-2.645 12.719-2.645s8.589 0.853 12.719 2.645c3.686 1.596 7.087 3.887 9.984 6.801 2.505 2.517 4.54 5.41 6.063 8.542l98.394 196.787c28.041-8.998 55.159-20.983 80.875-35.827 63.253-36.506 115.78-89.015 152.311-152.252 8.845-15.3 28.416-20.54 43.716-11.699 15.305 8.841 20.544 28.412 11.703 43.716-42.15 72.96-102.758 133.542-175.735 175.663-29.363 16.951-60.314 30.669-92.309 41.011zM288.008 554.667c0 123.712 100.288 224 224.001 224s224-100.288 224-224c0-123.712-100.288-224-224-224s-224.001 100.288-224.001 224zM512.009 266.667c21.214 0 42.317-1.621 63.138-4.817l-63.147-126.298-63.147 126.293c20.826 3.2 41.937 4.821 63.155 4.821z" />
<glyph unicode="&#xe922;" glyph-name="contest" d="M607.991 874.667c0 17.673-14.327 32-32 32s-32-14.327-32-32v-85.333c0-17.673 14.327-32 32-32s32 14.327 32 32v85.333zM895.991 842.667c0 17.673-14.327 32-32 32-17.596 0-31.876-14.206-32-31.777l-0.004-0.235c-0.013-0.326-0.038-0.951-0.102-1.833-0.124-1.775-0.393-4.518-0.956-7.894-1.152-6.904-3.392-15.621-7.556-23.95-4.105-8.204-9.754-15.434-17.63-20.685-7.676-5.117-19.349-9.626-37.751-9.626-29.598 0-53.926-7.492-73.25-20.374-19.123-12.749-31.471-29.519-39.373-45.315-7.834-15.671-11.593-30.954-13.44-42.050-0.939-5.623-1.421-10.38-1.668-13.856-0.124-1.743-0.192-3.18-0.226-4.261-0.017-0.541-0.030-0.994-0.034-1.353l-0.009-0.648v-0.076c0-0.089 0-0.067 0-0.067 0-17.673 14.327-32 32-32 17.6 0 31.881 14.206 32 31.776l0.009 0.236c0.009 0.326 0.034 0.951 0.098 1.833 0.128 1.775 0.397 4.518 0.96 7.894 1.148 6.904 3.392 15.621 7.556 23.95 4.1 8.204 9.754 15.434 17.63 20.685 7.676 5.117 19.349 9.626 37.747 9.626 29.602 0 53.926 7.492 73.25 20.374 19.123 12.749 31.475 29.519 39.373 45.315 7.834 15.671 11.593 30.954 13.444 42.050 0.934 5.623 1.417 10.38 1.664 13.856 0.124 1.743 0.192 3.18 0.23 4.261 0.017 0.541 0.026 0.994 0.034 1.353l0.004 0.648v0.143zM970.112 620.309c16.764 5.588 25.826 23.711 20.237 40.477s-23.71 25.827-40.478 20.239l-96-32c-16.764-5.588-25.826-23.711-20.237-40.477s23.71-25.827 40.478-20.239l96 32zM841.365 513.294c-12.497-12.498-12.497-32.756 0-45.254l64-64c12.497-12.497 32.759-12.497 45.257 0 12.493 12.497 12.493 32.755 0 45.252l-64 64.001c-12.497 12.497-32.759 12.497-45.257 0zM632.917 192.252c-0.777-0.316-1.562-0.602-2.355-0.853l-207.519-75.388c-1.647-0.759-3.345-1.374-5.074-1.843l-214.441-77.897c-50.646-19.093-101.028 31.292-81.932 81.937l77.967 214.63c0.441 1.591 1.007 3.153 1.698 4.672l75.429 207.64c0.27 0.855 0.577 1.701 0.921 2.535l59.108 162.713c8.619 23.715 29.187 36.21 48.131 39.793 18.361 3.473 41.135-0.263 57.364-16.486l376.759-376.756c33.289-33.071 19.725-89.937-23.249-105.553l-162.807-59.145zM344.249 543.685l284.76-284.758 144.41 52.459c0.034 0.085 0.068 0.188 0.094 0.299l0.030 0.188-375.7 375.524c-0.35 0.009-0.728-0.020-1.097-0.090-0.128-0.024-0.246-0.052-0.352-0.081l-52.144-143.541zM320.131 477.295l-52.631-144.883 150.236-150.234 144.879 52.629-242.484 242.487zM243.383 266.023l-61.594-169.557 169.557 61.594-107.962 107.964z" />
<glyph unicode="&#xe923;" glyph-name="cookie" d="M513.967 778.673c-70.11 0.35-138.728-20.244-197.060-59.145-58.403-38.949-103.827-94.471-130.435-159.433-26.607-64.96-33.184-136.397-18.883-205.125s48.823-131.61 99.134-180.565c137.061-133.397 358.637-131.925 493.856 3.294l0.068 0.068c33.062 32.866 59.238 72.004 76.988 115.115 17.741 43.098 26.705 89.301 26.372 135.906v0.051l32 0.23-31.996-0.469-0.043 0.171-0.111 0.137-0.158 0.077-0.149 0.004c-23.151-5.15-47.155-5.090-70.285 0.175-23.211 5.286-44.954 15.684-63.633 30.443-18.684 14.754-33.839 33.489-44.361 54.847-10.526 21.355-16.149 44.79-16.465 68.594l-0.004 0.425h-0.422c-23.804 0.316-47.236 5.942-68.595 16.464-21.355 10.522-40.094 25.677-54.848 44.361s-25.152 40.423-30.438 63.636c-5.269 23.127-5.325 47.135-0.175 70.286l-0.004 0.148-0.077 0.158-0.137 0.11-0.141 0.039zM281.398 772.773c69.022 46.031 150.231 70.372 233.192 69.897l0.29-0.001c9.523-0.141 18.897-2.393 27.447-6.593 8.546-4.2 16.060-10.244 21.99-17.696s10.138-16.128 12.309-25.402c2.176-9.273 2.266-18.914 0.265-28.226l-0.060-0.284c-3.123-13.938-3.102-28.397 0.068-42.325 3.174-13.927 9.412-26.972 18.266-38.182s20.096-20.303 32.909-26.616c12.766-6.289 26.769-9.662 40.994-9.875 16.879-0.069 33.054-6.804 44.992-18.744 11.942-11.94 18.675-28.113 18.748-44.992 0.209-14.228 3.584-28.23 9.873-40.996 6.315-12.813 15.407-24.056 26.615-32.91s24.256-15.091 38.182-18.261c13.926-3.174 28.386-3.196 42.325-0.073l0.282 0.064c9.314 2.001 18.953 1.907 28.228-0.265 9.271-2.176 17.95-6.383 25.399-12.314 7.454-5.931 13.5-13.44 17.698-21.99s6.451-17.924 6.592-27.447l0.004-0.239c0.401-55.134-10.202-109.798-31.194-160.785-20.983-50.97-51.925-97.246-91.012-136.107-159.987-159.949-421.586-161.664-583.714-3.874-59.458 57.86-100.257 132.173-117.157 213.397s-9.129 165.645 22.316 242.417c31.445 76.773 85.128 142.39 154.15 188.421zM624 202.667c26.509 0 48 21.491 48 48s-21.491 48-48 48c-26.509 0-48-21.491-48-48s21.491-48 48-48zM368 234.667c26.51 0 48 21.491 48 48s-21.49 48-48 48c-26.51 0-48-21.491-48-48s21.49-48 48-48zM336 458.667c26.51 0 48 21.491 48 48s-21.49 48-48 48c-26.51 0-48-21.49-48-48s21.49-48 48-48zM544 394.667c26.509 0 48 21.491 48 48s-21.491 48-48 48c-26.509 0-48-21.491-48-48s21.491-48 48-48z" />
<glyph unicode="&#xe924;" glyph-name="copy" d="M320 778.709c0 17.673 14.327 32 32 32h512c17.673 0 32-14.327 32-32v-511.999c0-17.673-14.327-32-32-32h-160v-160c0-17.673-14.327-32-32-32h-512c-17.673 0-32 14.327-32 32v511.999c0 17.673 14.327 32 32 32h160v160zM192 554.709v-447.999h448v447.999h-448zM704 298.71h128v447.999h-448v-128h288c17.673 0 32-14.327 32-32v-287.999z" />
<glyph unicode="&#xe925;" glyph-name="cross" d="M196.101 742.576c15.413 15.413 40.401 15.413 55.814 0l260.093-260.093 260.092 260.093c15.415 15.413 40.401 15.413 55.817 0 15.411-15.412 15.411-40.401 0-55.814l-260.096-260.095 260.096-260.092c15.411-15.411 15.411-40.401 0-55.812-15.415-15.415-40.401-15.415-55.817 0l-260.092 260.092-260.093-260.092c-15.413-15.415-40.401-15.415-55.814 0-15.412 15.411-15.412 40.401 0 55.812l260.091 260.092-260.091 260.095c-15.412 15.412-15.412 40.401 0 55.814z" />
<glyph unicode="&#xe926;" glyph-name="daily" d="M614.835 853.261c0-17.673 14.323-32 32-32 74.061 0 145.092-29.422 197.466-81.793 52.369-52.371 81.792-123.402 81.792-197.466 0-17.673 14.327-31.998 32-31.998s32 14.325 32 31.998c0 91.038-36.164 178.347-100.54 242.721-64.371 64.373-151.68 100.538-242.718 100.538-17.677 0-32-14.327-32-32zM329.484 818.265c-17.673 0-32-14.327-32-32v-29.8h-86.521c-34.037 0-61.63-27.593-61.63-61.63v-590.063c0-34.039 27.593-61.632 61.63-61.632h592.603c34.039 0 61.632 27.593 61.632 61.632v321.024c0 17.677-14.327 32-32 32s-32-14.323-32-32v-318.656h-587.866v404.326h320c17.673 0 32 14.328 32 32.001s-14.327 32-32 32h-320v116.998h84.151v-24.721c0-17.673 14.327-32 32-32s32 14.327 32 32v24.721h171.849c17.673 0 32 14.327 32 32s-14.327 32-32 32h-171.849v29.8c0 17.673-14.327 32-32 32zM614.835 726.089c0-17.673 14.323-32 32-32 40.333 0 79.019-16.023 107.541-44.545s44.544-67.206 44.544-107.542c0-17.673 14.327-31.998 32-31.998s32 14.325 32 31.998c0 57.31-22.767 112.273-63.292 152.797s-95.484 63.29-152.794 63.29c-17.677 0-32-14.327-32-32zM614.835 599.128c0-17.673 14.323-32 32-32 4.608 0 10.846-2.523 16.9-9.231 6.473-7.169 8.226-14.137 8.226-15.896 0-17.673 14.323-31.998 32-31.998 17.673 0 32 14.325 32 31.998 0 21.633-10.684 43.229-24.713 58.775-14.447 16.008-36.774 30.352-64.414 30.352-17.677 0-32-14.327-32-32zM338.25 419.593c0-17.677 14.327-32 32-32h50.089l-25.076-31.347c-7.684-9.604-9.183-22.763-3.854-33.852 5.329-11.085 16.541-18.138 28.842-18.138 5.7 0 11.314-1.404 16.34-4.092s9.314-6.571 12.484-11.311c3.166-4.74 5.116-10.189 5.675-15.859 0.563-5.675-0.286-11.396-2.466-16.661-2.18-5.269-5.623-9.916-10.031-13.534-4.403-3.618-9.634-6.093-15.223-7.211-5.59-1.114-11.369-0.832-16.824 0.819s-10.42 4.625-14.453 8.653c-12.504 12.489-32.766 12.476-45.255-0.030-12.489-12.501-12.477-32.764 0.027-45.252 11.479-11.465 25.608-19.925 41.135-24.623 15.528-4.702 31.974-5.504 47.884-2.33 15.91 3.17 30.793 10.219 43.332 20.514 12.535 10.295 22.34 23.526 28.544 38.519 6.204 14.989 8.614 31.279 7.023 47.424-1.596 16.145-7.147 31.646-16.162 45.133-7.437 11.132-17.050 20.608-28.22 27.874l37.845 47.309c7.684 9.609 9.182 22.767 3.853 33.856-5.329 11.085-16.538 18.138-28.838 18.138h-116.671c-17.673 0-32-14.327-32-32zM667.93 448.201c-10.837 5.423-23.812 4.254-33.51-3.021l-66.667-50.001c-14.14-10.603-17.003-30.66-6.4-44.8s30.66-17.003 44.8-6.4l15.467 11.601v-152.67c0-17.673 14.327-32 32-32s32 14.327 32 32v216.67c0 12.122-6.848 23.202-17.69 28.621z" />
<glyph unicode="&#xe927;" glyph-name="doc" d="M223.979 842.667c-16.974 0-33.252-6.743-45.255-18.745s-18.745-28.281-18.745-45.255v-704c0-16.973 6.743-33.254 18.745-45.257s28.281-18.743 45.255-18.743h576.029c8.405 0 16.73 1.655 24.495 4.873s14.818 7.927 20.762 13.871c5.943 5.943 10.658 13.001 13.875 20.766 3.213 7.765 4.868 16.085 4.868 24.491v512c0 8.487-3.371 16.626-9.37 22.627l-224 224c-6.003 6.001-14.14 9.373-22.63 9.373h-384.029zM576.009 778.667l-0.009-191.999c0-16.974 15.027-32.001 32-32.001h192.009v-480h-576.029v704h352.029zM640.009 733.416l114.748-114.749h-114.756l0.009 114.749z" />
<glyph unicode="&#xe928;" glyph-name="double-arrowright" d="M201.373 769.294c-12.497-12.497-12.497-32.758 0-45.255l297.371-297.373-297.371-297.374c-12.497-12.497-12.497-32.755 0-45.252s32.758-12.497 45.255 0l319.999 320c12.497 12.497 12.497 32.755 0 45.252l-319.999 320.001c-12.497 12.497-32.758 12.497-45.255 0zM521.374 769.294c-12.497-12.497-12.497-32.758 0-45.255l297.37-297.373-297.37-297.374c-12.497-12.497-12.497-32.755 0-45.252s32.755-12.497 45.252 0l320 320c12.497 12.497 12.497 32.755 0 45.252l-320 320.001c-12.497 12.497-32.755 12.497-45.252 0z" />
<glyph unicode="&#xe929;" glyph-name="down" d="M164.101 582.576c15.413 15.413 40.401 15.413 55.814 0l292.093-292.093 292.092 292.093c15.415 15.413 40.401 15.413 55.817 0 15.411-15.412 15.411-40.401 0-55.814l-320-319.999c-15.415-15.415-40.401-15.415-55.817 0l-319.999 319.999c-15.412 15.412-15.412 40.401 0 55.814z" />
<glyph unicode="&#xe92a;" glyph-name="equals" d="M120.542 554.669c0-21.797 17.67-39.467 39.467-39.467h704c21.798 0 39.467 17.67 39.467 39.467s-17.668 39.467-39.467 39.467h-704c-21.797 0-39.467-17.67-39.467-39.467zM120.542 298.667c0-21.794 17.67-39.467 39.467-39.467h704c21.798 0 39.467 17.673 39.467 39.467 0 21.798-17.668 39.467-39.467 39.467h-704c-21.797 0-39.467-17.668-39.467-39.467z" />
<glyph unicode="&#xe92b;" glyph-name="exclusive" d="M567.991 775.763c0 0.006 0.004-0.006 0 0l117.419-211.669c0.047-0.070 0.119-0.122 0.201-0.149 0.090-0.030 0.188-0.026 0.277 0.009-0.004-0.001 0.004 0.002 0 0l202.411 90.005c22.054 9.711 48.363 5.979 66.85-9.481 18.458-15.438 26.782-40.62 21.175-64.016-0.009-0.035-0.017-0.069-0.026-0.103l-102.012-433.252c-4.087-16.806-14.95-31.45-29.85-40.239-14.899-8.794-32.969-11.217-49.655-6.669l-0.128 0.034c-185.092 51.247-380.63 51.247-565.722 0l-0.126-0.034c-16.689-4.548-34.758-2.125-49.656 6.669-14.898 8.789-25.76 23.433-29.85 40.239l-0.063 0.256-101.579 433.117c-5.6 23.391 2.727 48.564 21.181 63.998 18.485 15.461 44.793 19.192 66.848 9.481l0.108-0.047 202.293-89.953c-0.004 0.001 0.003-0.002 0 0 0.087-0.036 0.196-0.044 0.286-0.014 0.082 0.027 0.152 0.079 0.202 0.149l117.415 211.669c0-0.007 0.004 0.007 0 0 24.414 44.088 88.384 42.65 112 0zM511.731 744.304l-117.54-211.889c-7.891-13.835-20.631-24.255-35.755-29.247s-31.562-4.203-46.138 2.214l-0.107 0.047-202.243 89.748 101.533-432.916c0.010-0.021 0.037-0.077 0.092-0.154 0.042-0.055 0.078-0.094 0.101-0.115 0.030-0.009 0.081-0.021 0.15-0.034 0.101-0.013 0.165-0.009 0.183-0.004 196.221 54.302 403.51 54.285 599.725-0.043l-8.542-30.839 8.414 30.874c-0.081 0.021-0.013-0.009 0.158 0.013 0.068 0.013 0.119 0.026 0.149 0.034 0.021 0.021 0.060 0.060 0.098 0.115 0.060 0.077 0.085 0.132 0.094 0.154 0 0 0 0 0 0l101.982 433.123-202.398-90.001c-14.575-6.417-31.014-7.206-46.14-2.214-15.121 4.992-27.861 15.414-35.75 29.248l-0.192 0.331-117.338 211.532c-0.102 0.018-0.226 0.031-0.358 0.032-0.064 0-0.124-0.002-0.179-0.006zM511.996 744.779v0c0 0-0.004 0 0 0z" />
<glyph unicode="&#xe92c;" glyph-name="expert" d="M799.919 858.875c17.673 0 32-14.327 32-32v-21.463c11.23-3.97 21.5-9.97 30.374-17.56l18.321 10.673c15.27 8.896 34.863 3.727 43.759-11.544s3.725-34.862-11.546-43.758l-18.513-10.785c1.054-5.694 1.604-11.565 1.604-17.564s-0.55-11.87-1.604-17.564l18.513-10.785c15.27-8.896 20.442-28.487 11.546-43.758s-28.489-20.439-43.759-11.543l-18.321 10.673c-8.875-7.59-19.145-13.59-30.374-17.56v-21.463c0-17.673-14.327-32-32-32-17.677 0-32.004 14.327-32.004 32v21.463c-11.23 3.97-21.5 9.97-30.37 17.559l-18.321-10.672c-15.275-8.896-34.863-3.727-43.759 11.543s-3.729 34.862 11.541 43.758l18.513 10.784c-1.054 5.695-1.604 11.566-1.604 17.565s0.55 11.871 1.604 17.565l-18.513 10.784c-15.27 8.896-20.437 28.487-11.541 43.758s28.484 20.439 43.759 11.544l18.321-10.673c8.87 7.59 19.14 13.59 30.37 17.559v21.463c0 17.673 14.327 32 32.004 32zM576.439 769.197c16.926-5.084 34.769 4.517 39.851 21.443 5.086 16.926-4.514 34.769-21.44 39.852-152.337 45.754-312.919-40.648-358.672-192.983-38.768-129.075 17.344-264.073 128.053-330.121-31.973-10.347-62.902-24.064-92.244-41.007-72.974-42.138-133.569-102.741-175.695-175.718-8.835-15.309-3.589-34.876 11.717-43.712s34.877-3.588 43.712 11.716c36.509 63.249 89.025 115.772 152.269 152.29 61.487 35.503 131.006 54.66 201.931 55.697 4.113-0.085 8.213-0.090 12.301 0 70.878-1.058 140.352-20.215 201.801-55.697 63.245-36.518 115.759-89.041 152.269-152.29 8.836-15.305 28.407-20.553 43.712-11.716 15.309 8.836 20.553 28.403 11.716 43.712-42.125 72.977-102.72 133.581-175.693 175.718-29.372 16.96-60.326 30.686-92.331 41.033 59.601 35.58 106.598 92.685 128.137 164.407 5.086 16.926-4.514 34.769-21.44 39.851-16.926 5.085-34.769-4.514-39.855-21.44-28.591-95.202-114.85-157.299-209.105-159.561-1.809 0.017-3.618 0.030-5.427 0.030-1.766 0-3.537-0.009-5.303-0.030-19.597 0.474-39.45 3.55-59.132 9.459-118.481 35.588-185.682 160.486-150.096 278.969s160.486 185.684 278.967 150.098zM799.919 746.875c-17.677 0-32.004-14.327-32.004-32s14.327-32 32.004-32c17.673 0 32 14.327 32 32s-14.327 32-32 32z" />
<glyph unicode="&#xe92d;" glyph-name="eye" d="M44.312 458.663c34.538 63.959 176.019 288.004 467.683 288.004s433.143-224.046 467.682-288.004c10.859-20.113 10.859-43.878 0-63.991-34.539-63.957-176.017-288.004-467.682-288.004s-433.145 224.047-467.683 288.004c-10.861 20.113-10.861 43.878 0 63.991zM511.996 682.667c-254.405 0-379.439-195.285-411.37-254.413-0.382-0.708-0.459-1.233-0.459-1.587s0.077-0.879 0.459-1.587c31.93-59.127 156.965-254.413 411.37-254.413s379.439 195.285 411.366 254.413c0.384 0.708 0.461 1.233 0.461 1.587s-0.077 0.879-0.461 1.587c-31.927 59.127-156.962 254.413-411.366 254.413zM511.996 554.667c-70.694 0-128-57.306-128-128s57.306-128 128-128c70.69 0 128 57.306 128 128s-57.31 128-128 128zM319.995 426.667c0 106.039 85.961 192 192.001 192s192-85.961 192-192c0-106.039-85.961-192-192-192s-192.001 85.961-192.001 192z" />
<glyph unicode="&#xe92e;" glyph-name="eyeinvisible" d="M170.466 802.345c13.077 11.888 33.315 10.924 45.204-2.153l211.274-232.403c0.384-0.383 0.764-0.777 1.131-1.183 0.367-0.404 0.725-0.816 1.067-1.233l426.53-469.181c11.887-13.077 10.923-33.314-2.155-45.205-13.077-11.887-33.314-10.923-45.201 2.155l-88.051 96.853c-65.498-29.094-136.546-43.913-208.405-43.345-291.609 0.068-433.051 224.111-467.564 288.030-10.874 20.139-10.805 43.93 0.004 63.983 21.943 40.704 85.155 142.883 200.928 213.873l-76.914 84.605c-11.888 13.077-10.924 33.315 2.153 45.204zM289.164 624.206c-108.502-62.517-168.25-158.295-188.528-195.914-0.383-0.708-0.469-1.254-0.469-1.638 0-0.38 0.083-0.9 0.445-1.57v0c31.911-59.102 156.945-254.434 411.38-254.434h0.26c55.612-0.452 110.673 9.647 162.295 29.636l-58.846 64.73c-30.741-19.802-66.748-30.46-103.765-30.332-0.021 0-0.043 0-0.064 0l0.124 32-0.004-32c-0.017 0-0.034 0-0.055 0-38.733 0.013-76.557 11.746-108.5 33.647-31.961 21.918-56.542 52.988-70.512 89.135s-16.676 75.674-7.761 113.387c6.433 27.217 18.701 52.566 35.809 74.365l43.98-48.377c-8.113-12.382-14.063-26.146-17.506-40.713-5.943-25.139-4.14-51.49 5.174-75.588s25.701-44.813 47.009-59.422c21.308-14.613 46.537-22.43 72.371-22.434h0.115c20.945-0.081 41.404 5.043 59.627 14.69l-166.79 183.467zM289.164 624.206v0zM423.917 739.426c29.118 4.874 58.592 7.296 88.113 7.239 0.013 0 0.021 0 0.034 0l-0.064-32v32c0.009 0 0.021 0 0.030 0 289.954-0.016 431.475-221.472 467.017-286.834v0c11.563-21.261 10.803-46.421-1.114-66.876-17.805-30.566-58.492-93.82-121.451-153.852-12.791-12.194-33.045-11.712-45.244 1.079-12.194 12.791-11.712 33.045 1.079 45.239 57.079 54.43 94.263 112.192 110.315 139.746 0.503 0.862 0.661 1.617 0.674 2.21 0.013 0.576-0.111 1.195-0.482 1.877-32.853 60.412-157.905 253.409-410.825 253.409h-0.064c-25.95 0.051-51.857-2.077-77.453-6.361-17.431-2.918-33.926 8.847-36.844 26.278s8.847 33.926 26.278 36.844zM510.549 589.791c3.294 17.364 20.036 28.774 37.402 25.484 40.845-7.74 78.067-28.556 106.048-59.307s45.197-69.767 49.054-111.162c1.643-17.6-11.294-33.195-28.89-34.833-17.6-1.638-33.195 11.294-34.833 28.894-2.569 27.567-14.037 53.551-32.67 74.031s-43.422 34.342-70.626 39.497c-17.365 3.29-28.774 20.034-25.485 37.398z" />
<glyph unicode="&#xe92f;" glyph-name="filter" d="M896 714.667c0 17.673-14.327 32-32 32l-352-0.003v64.003c0 17.673-14.327 32-32 32s-32-14.327-32-32v-192c0-17.673 14.327-32 32-32s32 14.327 32 32v63.997l352 0.003c17.673 0 32 14.327 32 32zM896 426.667c0 17.673-14.327 32-32 32h-160v64c0 17.673-14.327 32-32 32s-32-14.327-32-32v-192c0-17.673 14.327-32 32-32s32 14.327 32 32v64h160c17.673 0 32 14.327 32 32zM896 138.663c0 17.673-14.327 32-32 32l-480 0.004v64c0 17.673-14.327 32-32 32s-32-14.327-32-32v-192c0-17.673 14.327-32 32-32s32 14.327 32 32v64l480-0.004c17.673 0 32 14.327 32 32zM576 426.667c0 17.673-14.327 32-32 32h-384c-17.673 0-32-14.327-32-32s14.327-32 32-32h384c17.673 0 32 14.327 32 32zM384 714.663c0 17.673-14.326 32-32 32.001l-192 0.003c-17.673 0-32-14.326-32-32s14.326-32 32-32l192-0.003c17.673 0 32 14.326 32 31.999zM256 138.667c-0.001 17.677-14.329 32-32.002 32l-64-0.004c-17.673 0-31.999-14.327-31.998-32s14.328-32 32.002-32l64 0.004c17.673 0 31.999 14.327 31.998 32z" />
<glyph unicode="&#xe930;" glyph-name="fire-3" d="M528.533 830.735c-1.707 1.388-3.575 2.31-7.859 1.921-0.708-0.064-1.084-0.174-1.225-0.219-0.115-0.039-0.149-0.062-0.162-0.069v-0.001c-0.017-0.010-0.158-0.102-0.422-0.387-0.282-0.299-0.742-0.862-1.323-1.825l-0.597-0.999-0.674-0.953c-39.74-56.458-59.849-103.452-64.393-141.603l-0.051-0.438-0.064-0.436c-4.399-29.907 0.849-55.959 15.228-79.637l0.23-0.381v-0.001c8.538-14.51 27.046-36.436 58.129-66.441l0.405-0.39-0.004-0.003c23.748-23.742 41.801-43.846 52.416-59.585 18.441-25.242 28.587-53.265 28.587-83.477 0-37.756-13.675-70.767-40.606-96.981-26.594-25.886-59.29-39.181-96.393-39.181-37.397 0-70.083 13.803-96.18 40.597-26.013 26.709-39.192 59.725-39.192 97.19v138.336c0 2.566-0.403 3.794-0.559 4.184-0.116 0.29-0.229 0.493-0.608 0.844-1.8 1.671-3.77 2.698-7.501 2.885-0.304 0.015-0.5 0.006-0.606-0.004-0.036-0.024-0.082-0.057-0.14-0.1-0.221-0.168-0.651-0.531-1.251-1.217l-0.477-0.546-0.501-0.523c-22.342-23.308-40.993-50.667-55.868-82.321-16.561-37.103-24.768-75.43-24.768-115.247 0-50.795 12.624-97.237 37.873-139.955 25.47-43.093 59.577-77.188 102.682-102.656 42.732-25.242 89.191-37.862 140.003-37.862 50.816 0 97.271 12.621 140.002 37.862 43.106 25.468 77.214 59.563 102.682 102.656 25.25 42.718 37.875 89.161 37.875 139.955 0 43.836-7.424 84.139-21.99 121.212-12.599 28.919-31.232 58.014-56.401 87.229-15.241 17.251-39.77 41.828-74.138 74.045-37.692 34.463-65.468 63.494-80.892 86.352-25.899 34.769-40.068 72.585-40.068 112.9 0 2.959-0.486 4.27-0.627 4.588-0.073 0.171-0.124 0.24-0.149 0.275-0.030 0.038-0.137 0.177-0.422 0.407zM514.884 896.393c19.593 1.781 38.345-3.264 53.999-15.982 17.438-14.162 24.849-34.057 24.849-54.947 0-24.515 8.431-49.393 27.785-75.191l0.533-0.711 0.491-0.739c10.709-16.058 33.694-40.971 71.479-75.508l0.294-0.27v-0.002c34.918-32.73 61.312-59.057 78.622-78.665l0.243-0.276-0.004-0.002c28.894-33.505 51.396-68.219 66.987-104.194l0.209-0.482 0.196-0.491c17.865-45.252 26.654-93.756 26.654-145.207 0-62.042-15.595-119.761-46.775-172.518-30.967-52.386-72.828-94.238-125.227-125.193-52.774-31.177-110.502-46.763-172.557-46.763s-119.783 15.586-172.555 46.763c-52.399 30.955-94.261 72.806-125.225 125.193-31.185 52.757-46.778 110.477-46.778 172.518 0 49.062 10.205 96.367 30.465 141.645l0.231 0.516 0.004-0.004c17.569 37.471 39.97 70.63 67.287 99.233 13.532 15.141 31.796 23.54 52.819 22.489 17.975-0.899 34.454-7.466 47.848-19.901 15.129-14.045 21.624-32.576 21.624-51.933v-138.336c0-21.12 6.899-38.016 21.041-52.54 14.057-14.434 30.21-21.248 50.332-21.248 20.416 0 37.099 6.78 51.75 21.039 14.306 13.926 21.248 30.289 21.248 51.123 0 15.113-4.881 30.285-16.55 46.114l-0.444 0.602-0.418 0.627c-6.788 10.185-21.073 26.688-44.642 50.266-31.667 30.581-55.363 57.345-68.526 79.638-22.357 36.91-30.12 77.912-23.793 121.548 6.374 52.62 32.687 109.353 74.961 169.594 11.456 18.399 29.231 30.167 51.541 32.195z" />
<glyph unicode="&#xe931;" glyph-name="forecasts-1" d="M128 778.667c17.673 0 32-14.327 32-32v-434.743l201.373 201.371c12.497 12.497 32.758 12.497 45.255 0l105.373-105.371 242.743 242.743h-82.743c-17.673 0-32 14.327-32 32s14.327 32 32 32h160c17.673 0 32-14.327 32-32v-160c0-17.673-14.327-32-32-32s-32 14.327-32 32v82.745l-265.374-265.371c-12.497-12.497-32.755-12.497-45.252 0l-105.374 105.37-224-224v-82.743h736c17.673 0 32-14.327 32-32s-14.327-32-32-32h-768c-17.673 0-32 14.327-32 32v640c0 17.673 14.327 32 32 32z" />
<glyph unicode="&#xe932;" glyph-name="forecasts-2" d="M640 714.667c0 17.673 14.327 32 32 32h256c17.673 0 32-14.327 32-32v-256c0-17.673-14.327-32-32-32s-32 14.327-32 32v178.745l-329.374-329.371c-12.497-12.497-32.755-12.497-45.252 0l-137.374 137.37-265.373-265.37c-12.497-12.497-32.758-12.497-45.255 0s-12.497 32.755 0 45.252l288 288.001c12.497 12.497 32.758 12.497 45.255 0l137.373-137.371 306.743 306.743h-178.743c-17.673 0-32 14.327-32 32z" />
<glyph unicode="&#xe933;" glyph-name="freespin" d="M512 341.334c-47.125 0-85.333 38.204-85.333 85.333s38.208 85.333 85.333 85.333c47.13 0 85.333-38.204 85.333-85.333s-38.204-85.333-85.333-85.333zM450.24 112.815c62.071-12.348 126.413-6.012 184.887 18.21 58.47 24.222 108.45 65.233 143.612 117.858s53.931 114.492 53.931 177.783c0 63.292-18.769 125.158-53.931 177.782s-85.141 93.639-143.612 117.859c-58.475 24.22-122.816 30.557-184.887 18.21-62.075-12.347-119.093-42.825-163.846-87.577-12.497-12.497-32.758-12.497-45.255 0s-12.497 32.758 0 45.255c53.704 53.703 122.126 90.276 196.613 105.092 74.492 14.817 151.701 7.212 221.867-21.852s130.138-78.282 172.335-141.431c42.193-63.148 64.717-137.392 64.717-213.339s-22.524-150.191-64.717-213.338c-42.197-63.151-102.17-112.367-172.335-141.431s-147.375-36.668-221.867-21.854c-74.487 14.818-142.909 51.392-196.613 105.092l-81.139 81.139v-114.743c0-17.673-14.327-32-32-32s-32 14.327-32 32v192c0 17.673 14.327 32 32 32h192c17.673 0 32-14.327 32-32s-14.327-32-32-32h-114.745l81.138-81.139c44.753-44.753 101.772-75.23 163.846-87.578z" />
<glyph unicode="&#xe934;" glyph-name="gear" d="M400.095 793.601c-23.088-7.206-46.796-16.978-68.161-28.16l-14.875-73.787c-1.245-6.176-4.286-11.848-8.742-16.303l-44.917-44.917c-4.45-4.45-10.113-7.489-16.281-8.737l-73.902-14.954c-11.161-21.305-20.849-44.925-28.012-68.016l41.579-62.315c3.509-5.257 5.382-11.439 5.382-17.762v-63.479c0-6.293-1.856-12.45-5.337-17.694l-41.779-62.955c7.218-23.023 17.076-46.669 28.324-68.079l73.271-14.737c6.193-1.246 11.878-4.297 16.34-8.768l45.54-45.632c4.473-4.484 7.516-10.193 8.743-16.405l14.402-72.896c21.364-11.2 45.080-20.971 68.176-28.151l62.921 41.66c5.239 3.469 11.383 5.321 17.664 5.321h63.403c6.315 0 12.484-1.869 17.737-5.367l62.455-41.587c23.104 7.185 46.737 16.879 68.066 28.028l15.010 73.933c1.25 6.161 4.288 11.819 8.73 16.265l44.851 44.851c4.454 4.45 10.121 7.492 16.294 8.738l73.809 14.903c11.162 21.333 20.855 45.065 28.028 68.215l-41.301 62.212c-3.482 5.248-5.338 11.405-5.338 17.698v63.603c0 6.268 1.839 12.395 5.291 17.626l41.024 62.173c0 0.003 0.004 0.006 0.004 0.008 0.038 0.173 0.073 0.377 0.102 0.601 0.017 0.14 0.030 0.273 0.038 0.398-5.841 18.277-19.61 51.383-28.079 67.73-0.090 0.064-0.166 0.116-0.23 0.155l-72.973 14.335c-6.255 1.229-12.002 4.3-16.503 8.819l-45.21 45.395c-4.437 4.457-7.467 10.124-8.704 16.291l-14.72 73.44c-21.38 11.185-45.265 20.962-68.454 28.157l-61.781-41.396c-5.269-3.53-11.469-5.415-17.813-5.415h-64.273c-6.345 0-12.544 1.886-17.813 5.418l-61.985 41.543zM382.056 855.015c18.654 5.774 38.173 2.137 53.357-8.040l54.212-36.335h44.813l54.007 36.187c15.164 10.159 34.641 13.795 53.265 8.064 27.43-8.442 55.68-19.99 81.199-33.427 17.242-9.079 28.407-25.391 31.979-43.194l12.907-64.379 31.497-31.628 63.919-12.556c18.679-3.669 35.307-16.573 43.46-32.049 10.458-19.848 26.705-58.932 33.545-81.004 2.722-8.79 2.871-18.187 1.865-26.051-1.033-8.047-3.708-17.932-9.647-26.932l-36.258-54.95v-44.343l36.16-54.473c10.044-15.13 13.611-34.5 7.923-53.018-8.414-27.401-19.878-55.492-33.306-80.99-9.062-17.212-25.34-28.369-43.106-31.957l-64.738-13.069-31.206-31.206-13.167-64.875c-3.605-17.771-14.788-34.027-31.987-43.072v0c-25.425-13.376-53.376-24.828-80.713-33.263-18.573-5.734-38.012-2.15-53.175 7.949l-54.703 36.429h-44.092l-55.198-36.548c-15.116-10.010-34.47-13.572-52.984-7.868-27.423 8.452-55.494 20.011-80.935 33.434-17.271 9.109-28.456 25.485-31.988 43.362l-12.596 63.757-31.837 31.902-64.14 12.902c-17.829 3.584-34.095 14.775-43.171 31.953-13.391 25.34-25.047 53.286-33.569 80.713-5.773 18.577-2.187 38.007 7.861 53.15v0l36.656 55.232v44.134l-36.402 54.558c-10.106 15.144-13.714 34.576-7.999 53.156 8.419 27.372 19.882 55.352 33.293 80.787 9.063 17.187 25.318 28.343 43.077 31.936l64.834 13.119 31.261 31.261 13.043 64.697c3.59 17.809 14.78 34.089 31.994 43.154 25.405 13.378 53.422 24.919 80.79 33.389zM512 618.472c-105.932 0-191.807-85.874-191.807-191.805 0-105.933 85.874-191.808 191.807-191.808 105.929 0 191.804 85.875 191.804 191.808 0 105.931-85.875 191.805-191.804 191.805zM256.193 426.667c0 141.277 114.528 255.805 255.807 255.805s255.804-114.528 255.804-255.805c0-141.278-114.526-255.808-255.804-255.808s-255.807 114.53-255.807 255.808z" />
<glyph unicode="&#xe935;" glyph-name="hamburger" d="M128 682.657c0-17.673 14.327-32 32-32h704c17.673 0 32 14.327 32 32s-14.327 32-32 32h-704c-17.673 0-32-14.327-32-32zM128 426.667c0-17.673 14.327-32 32-32h704c17.673 0 32 14.327 32 32s-14.327 32-32 32h-704c-17.673 0-32-14.327-32-32zM128 170.676c0-17.673 14.327-32 32-32h704c17.673 0 32 14.327 32 32s-14.327 32-32 32h-704c-17.673 0-32-14.327-32-32z" />
<glyph unicode="&#xe936;" glyph-name="hammer" d="M503.953 872.703c29.158 29.159 76.437 29.159 105.596 0v0l44.54-44.54c29.158-29.159 29.158-76.435 0-105.594l-9.583-9.58c-4.164-4.166-4.164-10.92 0.004-15.085l149.419-149.42c4.164-4.166 10.918-4.166 15.083 0l9.583 9.58c29.158 29.159 76.433 29.159 105.591 0l44.54-44.54c29.163-29.158 29.163-76.437 0-105.595l-254.298-254.298c-29.158-29.158-76.437-29.158-105.596 0l-44.54 44.54c-29.158 29.158-29.158 76.433 0 105.596l9.579 9.579c4.169 4.164 4.169 10.918 0 15.083l-52.070 52.075-94.571-94.571 17.109-17.109c29.158-29.158 29.158-76.433 0-105.596l-149.421-149.419c-29.159-29.158-76.436-29.158-105.595 0l-79.5 79.501c-29.159 29.158-29.159 76.437 0 105.596l149.42 149.419c29.159 29.158 76.436 29.158 105.595 0l17.137-17.135 94.569 94.566-52.091 52.096c-4.166 4.164-10.919 4.164-15.085 0l-9.58-9.583c-29.159-29.158-76.436-29.158-105.595 0l-44.54 44.541c-29.159 29.159-29.159 76.435 0 105.594l254.299 254.3zM564.292 827.448c-4.164 4.166-10.918 4.166-15.083 0l-254.301-254.3c-4.166-4.166-4.166-10.919 0-15.085l44.54-44.54c4.166-4.164 10.92-4.164 15.085 0l9.58 9.58c29.159 29.159 76.437 29.159 105.595 0l149.419-149.42c29.158-29.158 29.158-76.437 0-105.596l-9.579-9.579c-4.169-4.164-4.169-10.918 0-15.087l44.54-44.54c4.164-4.164 10.918-4.164 15.083 0l254.302 254.302c4.164 4.164 4.164 10.918 0 15.083l-44.54 44.541c-4.169 4.166-10.918 4.166-15.087 0l-9.579-9.58c-29.158-29.158-76.437-29.158-105.596 0l-149.419 149.42c-29.158 29.159-29.158 76.436 0 105.595l9.579 9.58c4.169 4.166 4.169 10.919 0 15.085l-44.54 44.54zM319.584 303.066c-4.166 4.169-10.92 4.169-15.085 0l-149.42-149.419c-4.166-4.164-4.166-10.918 0-15.083l79.5-79.501c4.166-4.169 10.919-4.169 15.085 0l149.42 149.419c4.166 4.164 4.166 10.918 0 15.087l-79.5 79.497z" />
<glyph unicode="&#xe937;" glyph-name="hashtag" d="M453.726 810.156c17.387-3.162 28.919-19.82 25.758-37.208l-33.869-186.276h190.95l35.951 197.725c3.162 17.388 19.819 28.921 37.21 25.76 17.387-3.162 28.919-19.82 25.758-37.208l-33.869-186.276h194.402c17.673 0 32-14.327 32-32s-14.327-32-32-32h-206.037l-34.91-192h194.53c17.673 0 32-14.327 32-32s-14.327-32-32-32h-206.165l-35.951-197.726c-3.162-17.387-19.819-28.919-37.21-25.758-17.387 3.162-28.919 19.819-25.758 37.21l33.869 186.274h-190.951l-35.95-197.726c-3.161-17.387-19.82-28.919-37.208-25.758s-28.921 19.819-25.76 37.21l33.868 186.274h-194.385c-17.673 0-32 14.327-32 32s14.327 32 32 32h206.021l34.909 192h-194.513c-17.673 0-32 14.327-32 32s14.327 32 32 32h206.15l35.95 197.725c3.161 17.388 19.819 28.921 37.21 25.76zM433.98 522.672l-34.909-192h190.95l34.91 192h-190.95z" />
<glyph unicode="&#xe938;" glyph-name="help" d="M96 426.667c0 114.038 45.886 217.358 120.202 292.506 0.505 0.582 1.034 1.152 1.588 1.705s1.123 1.083 1.705 1.588c75.148 74.316 178.468 120.202 292.506 120.202 113.954 0 217.207-45.819 292.339-120.038 0.649-0.553 1.284-1.137 1.899-1.751s1.199-1.248 1.749-1.898c74.206-75.131 120.013-178.373 120.013-292.313 0-113.869-45.747-217.050-119.868-292.169-0.597-0.708-1.229-1.399-1.894-2.069-0.67-0.666-1.361-1.297-2.069-1.894-75.119-74.121-178.3-119.868-292.169-119.868-113.94 0-217.181 45.807-292.313 120.013-0.65 0.55-1.283 1.135-1.898 1.749s-1.198 1.25-1.751 1.899c-74.22 75.132-120.038 178.385-120.038 292.339zM330.667 426.667c0-100.147 81.186-181.333 181.333-181.333s181.333 81.186 181.333 181.333c0 100.148-81.186 181.333-181.333 181.333s-181.333-81.186-181.333-181.333zM160 426.667c0-85.687 30.616-164.224 81.507-225.263l75.873 75.874c-31.805 41.37-50.713 93.171-50.713 149.389 0 56.209 18.904 108.007 50.702 149.376l-75.873 75.873c-50.883-61.040-81.495-139.57-81.495-225.25zM362.624 621.298c41.37 31.798 93.167 50.702 149.376 50.702 56.218 0 108.019-18.909 149.389-50.713l75.874 75.873c-61.039 50.89-139.575 81.507-225.263 81.507-85.68 0-164.21-30.612-225.25-81.495l75.873-75.873zM706.641 576.029c31.791-41.367 50.692-93.157 50.692-149.362 0-56.209-18.906-108.006-50.701-149.376l75.874-75.874c50.88 61.039 81.493 139.571 81.493 225.25 0 85.673-30.609 164.198-81.485 225.236l-75.874-75.874zM661.376 232.034c-41.37-31.795-93.167-50.701-149.376-50.701-56.205 0-107.995 18.901-149.362 50.692l-75.874-75.874c61.038-50.876 139.563-81.485 225.236-81.485 85.679 0 164.211 30.613 225.25 81.493l-75.874 75.874z" />
<glyph unicode="&#xe939;" glyph-name="hihand" d="M467.243 781.407c11.665-3.523 21.547-11.35 27.652-21.882l104.29-204.412c1.51-4.121 3.273-8.17 5.278-12.123l22.921-44.161c-11.482-8.529-22.003-18.334-31.347-29.252-16.393-19.157-28.847-41.361-36.642-65.34-7.795-23.974-10.782-49.259-8.789-74.389 1.997-25.135 8.93-49.63 20.407-72.081 8.047-15.731 27.324-21.965 43.059-13.922 15.735 8.047 21.969 27.324 13.926 43.059-7.646 14.95-12.267 31.266-13.594 48.004s0.661 33.574 5.854 49.545c5.193 15.966 13.483 30.754 24.401 43.511s24.247 23.232 39.223 30.831c7.612 3.861 13.367 10.607 15.983 18.735s1.873 16.964-2.057 24.546l-33.664 64.854c-0.576 2.23-1.404 4.432-2.492 6.569l-3.349 6.557c-2.756 9.292-2.658 19.273 0.388 28.615 3.964 12.127 12.578 22.185 23.953 27.96s24.576 6.796 36.706 2.836c12.126-3.959 22.182-12.575 27.959-23.95l72.691-141.388c0.009-0.017 0.017-0.034 0.026-0.051 34.607-68.087 40.755-147.132 17.097-219.755-23.667-72.64-75.226-132.902-143.326-167.535-68.096-34.628-147.166-40.785-219.806-17.118s-132.915 75.243-167.544 143.343l-138.115 271.091c-0.003 0.004 0.003-0.004 0 0-2.854 5.628-4.574 11.763-5.060 18.057-0.487 6.298 0.272 12.628 2.233 18.633 3.959 12.127 12.575 22.185 23.95 27.96s24.579 6.796 36.707 2.836c12.127-3.959 22.185-12.575 27.96-23.95l0.043-0.084 65.6-128.265c8.047-15.735 27.326-21.969 43.061-13.922s21.967 27.328 13.919 43.063l-55.723 108.953c-0.426 1.155-0.924 2.296-1.494 3.421l-81.46 160.594c-4.934 11.133-5.454 23.734-1.44 35.246 4.075 11.691 12.509 21.354 23.541 26.973s23.808 6.758 35.66 3.178c11.658-3.52 21.534-11.338 27.639-21.858l25.809-50.834c0.698-1.757 1.442-3.5 2.232-5.228 0.91-1.99 1.999-3.842 3.238-5.545l92.911-183.002c8-15.757 27.26-22.046 43.021-14.046 15.757 8 22.046 27.261 14.046 43.020l-96.774 190.609c-3.464 10.119-3.462 21.157 0.089 31.342 4.075 11.69 12.509 21.354 23.542 26.973 11.029 5.618 23.808 6.757 35.661 3.178zM616.102 662.78l-64.538 126.496c-0.201 0.394-0.41 0.783-0.627 1.168-14.182 25.166-37.542 43.879-65.195 52.23s-57.463 5.694-83.206-7.415c-16.512-8.41-30.53-20.702-40.969-35.636-13.021 13.16-29.217 23.001-47.236 28.442-27.654 8.351-57.465 5.694-83.206-7.416s-45.422-35.659-54.93-62.936c-9.509-27.278-8.11-57.174 3.904-83.445 0.18-0.393 0.367-0.783 0.563-1.168l27.982-55.164c-16.602-0.384-33.071-4.455-48.16-12.116-26.51-13.46-46.588-36.899-55.816-65.162-4.569-13.995-6.337-28.753-5.203-43.43s5.148-28.988 11.812-42.116l138.135-271.13c42.323-83.23 115.975-146.24 204.753-175.164 88.781-28.928 185.412-21.402 268.646 20.924 83.23 42.321 146.236 115.972 175.164 204.753 28.924 88.781 21.397 185.412-20.924 268.642l-72.674 141.353c-0.013 0.026-0.026 0.052-0.038 0.078-13.466 26.472-36.89 46.519-65.122 55.738-28.267 9.228-59.038 6.851-85.547-6.609-14.775-7.503-27.554-18.106-37.568-30.917z" />
<glyph unicode="&#xe93a;" glyph-name="home" d="M468.843 814.72c11.793 10.768 27.187 16.739 43.157 16.739s31.364-5.971 43.157-16.739c0.013-0.014 0.030-0.027 0.043-0.041l320.371-291.145c6.323-5.972 11.388-13.15 14.895-21.108 3.511-7.962 5.389-16.542 5.53-25.237l0.009-0.521-0.004-370.001c0-16.973-6.741-33.25-18.743-45.252s-28.284-18.748-45.257-18.748h-192c-16.973 0-33.254 6.746-45.257 18.748s-18.743 28.279-18.743 45.252v192h-128v-192c0-16.973-6.741-33.25-18.743-45.252-12.004-12.002-28.283-18.748-45.257-18.748h-192c-16.974 0-33.252 6.746-45.255 18.748s-18.745 28.279-18.745 45.252v370.522c0.141 8.695 2.025 17.276 5.532 25.237 3.508 7.957 8.572 15.135 14.896 21.108l0.451 0.417 319.921 290.728c0.013 0.014 0.030 0.027 0.043 0.041zM192.303 476.933c-0.085-0.094-0.154-0.201-0.206-0.316-0.054-0.124-0.087-0.252-0.098-0.384v-369.566h192v192c0 16.977 6.743 33.254 18.745 45.257s28.282 18.743 45.255 18.743h128c16.973 0 33.254-6.741 45.257-18.743s18.743-28.279 18.743-45.257v-192h192v369.566c-0.013 0.132-0.043 0.26-0.098 0.384-0.051 0.115-0.119 0.222-0.205 0.316l-319.774 290.454-319.62-290.454z" />
<glyph unicode="&#xe93b;" glyph-name="how-to-reg" d="M405.333 736c111.932 0 202.667-90.737 202.667-202.667 0-111.932-90.735-202.667-202.667-202.667-111.93 0-202.667 90.735-202.667 202.667 0 111.93 90.737 202.667 202.667 202.667zM550.711 309.743c73.015 47.573 121.289 129.946 121.289 223.59 0 147.276-119.39 266.667-266.667 266.667s-266.667-119.391-266.667-266.667c0-93.645 48.272-176.017 121.29-223.59-14.601-4.326-28.971-9.306-43.050-14.938-59.157-23.663-111.938-58.304-154.449-101.764-12.358-12.634-12.134-32.892 0.5-45.252 12.634-12.356 32.894-12.134 45.252 0.503 35.904 36.702 81.057 66.526 132.467 87.091s107.628 31.283 164.657 31.283c57.028 0 113.246-10.718 164.659-31.283 51.409-20.565 96.563-50.389 132.463-87.091 12.361-12.638 32.619-12.86 45.252-0.503 12.638 12.361 12.86 32.619 0.499 45.252-42.509 43.46-95.287 78.101-154.445 101.764-14.080 5.632-28.45 10.611-43.051 14.938zM1003.959 491.96c12.497-12.497 12.497-32.755 0-45.252l-170.667-170.667c-12.497-12.497-32.755-12.497-45.252 0l-85.333 85.329c-12.497 12.497-12.497 32.755 0 45.252 12.493 12.497 32.755 12.497 45.252 0.004l62.707-62.707 148.041 148.041c12.497 12.497 32.755 12.497 45.252 0z" />
<glyph unicode="&#xe93c;" glyph-name="infinity" d="M287.28 583.204c-30.952 6.136-63.028 2.959-92.175-9.129s-54.057-32.544-71.581-58.784c-17.524-26.24-26.878-57.084-26.878-88.64 0-31.552 9.353-62.4 26.878-88.64s42.435-46.694 71.581-58.786c29.147-12.087 61.222-15.262 92.175-9.126 30.65 6.076 58.836 21.013 81.068 42.953l34.13 38.443c11.733 13.218 31.958 14.421 45.176 2.688 13.214-11.733 14.417-31.957 2.684-45.175l-34.799-39.198c-0.427-0.482-0.868-0.951-1.323-1.404-31.287-31.232-71.129-52.489-114.492-61.086s-88.302-4.143-129.137 12.791c-40.835 16.934-75.733 45.594-100.285 82.355s-37.656 79.979-37.656 124.186c0 44.207 13.104 87.423 37.656 124.185s59.45 65.422 100.285 82.357c40.835 16.935 85.773 21.386 129.137 12.79s83.206-29.853 114.492-61.085c0.454-0.454 0.895-0.921 1.321-1.401l240.134-270.447c22.229-21.939 50.415-36.877 81.067-42.953 30.95-6.135 63.027-2.961 92.173 9.126 29.15 12.092 54.059 32.546 71.582 58.786 17.527 26.24 26.88 57.088 26.88 88.64 0 31.556-9.353 62.4-26.88 88.64-17.523 26.24-42.432 46.697-71.582 58.784-29.146 12.088-61.222 15.265-92.173 9.129-30.652-6.076-58.837-21.014-81.067-42.952l-34.133-38.444c-11.733-13.218-31.957-14.421-45.175-2.688-13.214 11.733-14.417 31.959-2.684 45.175l34.799 39.2c0.427 0.481 0.87 0.948 1.323 1.403 31.287 31.232 71.13 52.489 114.492 61.085 43.366 8.596 88.303 4.145 129.139-12.79 40.832-16.935 75.733-45.595 100.284-82.357 24.555-36.762 37.658-79.978 37.658-124.185s-13.103-87.424-37.658-124.186c-24.55-36.762-59.452-65.421-100.284-82.355-40.836-16.934-85.773-21.389-129.139-12.791-43.362 8.597-83.204 29.854-114.492 61.086-0.452 0.452-0.896 0.922-1.318 1.399l-240.133 270.447c-22.232 21.939-50.418 36.878-81.069 42.953z" />
<glyph unicode="&#xe93d;" glyph-name="left" d="M646.583 795.909c15.411-15.412 15.411-40.401 0-55.814l-292.094-292.095 292.094-292.092c15.411-15.411 15.411-40.401 0-55.812-15.415-15.415-40.401-15.415-55.817 0l-319.999 320c-15.412 15.411-15.412 40.401 0 55.812l319.999 320.001c15.415 15.413 40.401 15.413 55.817 0z" />
<glyph unicode="&#xe93e;" glyph-name="legal" d="M512.009 809.782c-17.673 0-32-14.327-32-32v-105.079l-263.337-54.42c-12.622-2.609-21.959-12.32-24.702-24.099l-124.806-311.2c-1.402-3.494-2.143-7.091-2.283-10.654h-0.213c0-80 78.153-133.449 158.839-133.449s158.839 53.449 158.839 133.449h-0.108c-0.14 3.563-0.881 7.159-2.283 10.654l-112.473 280.447 212.528 43.921v-500.688h-63.887c-17.673 0-32-14.323-32-32 0-17.673 14.327-32 32-32h192.019c17.673 0 32 14.327 32 32 0 17.677-14.327 32-32 32h-64.132v513.914l205.073 42.38-103.919-259.125c-1.404-3.494-2.146-7.091-2.287-10.654h-0.213c0-80 78.157-133.449 158.839-133.449 80.687 0 158.839 53.449 158.839 133.449h-0.107c-0.141 3.563-0.883 7.159-2.283 10.654l-124.356 310.080c-1.075 4.612-3.098 8.767-5.828 12.297-3.443 4.921-8.307 8.931-14.298 11.333-3.908 1.568-7.945 2.31-11.913 2.308-3.972 0.002-8.009-0.74-11.917-2.308-1.131-0.453-2.219-0.963-3.268-1.526l-242.364-50.087v91.853c0 17.673-14.327 32-32 32zM801.502 323.729c-55.326 0-89.847 32.422-94.336 62.767l94.391 235.364 94.31-235.172c-4.369-30.4-38.921-62.959-94.366-62.959zM223.505 202.88c-55.326 0-89.847 32.422-94.339 62.767l94.391 235.362 94.314-235.17c-4.373-30.4-38.924-62.959-94.367-62.959z" />
<glyph unicode="&#xe93f;" glyph-name="live" d="M220.934 766.117c12.508-12.486 12.527-32.747 0.041-45.255-37.908-37.978-68.18-82.876-89.175-132.258-21.566-51.264-32.675-106.317-32.675-161.933s11.11-110.673 32.676-161.937c20.995-49.382 51.267-94.281 89.175-132.258 12.486-12.506 12.467-32.768-0.041-45.252-12.508-12.489-32.77-12.467-45.255 0.038-43.706 43.789-78.604 95.552-102.802 152.491l-0.044 0.102c-24.888 59.14-37.709 122.654-37.709 186.816 0 64.158 12.82 127.674 37.709 186.811l0.044 0.104c24.198 56.937 59.096 108.704 102.802 152.49 12.485 12.508 32.747 12.527 45.255 0.042zM807.817 766.117c12.506 12.485 32.768 12.466 45.252-0.042 43.708-43.786 78.605-95.552 102.805-152.49l0.043-0.104c24.887-59.137 37.709-122.653 37.709-186.811 0-64.162-12.821-127.676-37.709-186.816l-0.043-0.102c-24.201-56.939-59.098-108.702-102.805-152.491-12.484-12.506-32.747-12.527-45.252-0.038-12.51 12.484-12.527 32.747-0.043 45.252 37.905 37.978 68.177 82.871 89.173 132.25 21.568 51.268 32.678 106.325 32.678 161.946 0 55.616-11.11 110.675-32.678 161.941-20.996 49.379-51.268 94.274-89.173 132.25-12.484 12.508-12.467 32.769 0.043 45.255zM332.657 652.884c12.49-12.503 12.479-32.765-0.025-45.255-23.343-23.317-41.927-50.952-54.717-81.365l-0.046-0.108c-13.369-31.465-20.259-65.299-20.259-99.488 0-34.185 6.89-68.019 20.259-99.486l0.046-0.107c12.79-30.413 31.375-58.048 54.717-81.365 12.504-12.489 12.515-32.751 0.025-45.257-12.49-12.501-32.751-12.514-45.255-0.021-29.201 29.167-52.452 63.735-68.46 101.777-16.717 39.364-25.333 81.694-25.333 124.459 0 42.769 8.615 85.094 25.332 124.46 16.007 38.044 39.259 72.612 68.46 101.782 12.503 12.49 32.765 12.479 45.255-0.025zM694.583 652.884c12.489 12.503 32.751 12.515 45.257 0.025 29.201-29.169 52.45-63.737 68.459-101.78 16.717-39.363 25.331-81.692 25.331-124.461 0-42.765-8.614-85.090-25.331-124.454-16.004-38.042-39.258-72.614-68.459-101.781-12.506-12.493-32.768-12.48-45.257 0.021-12.489 12.506-12.48 32.768 0.026 45.257 23.343 23.317 41.929 50.953 54.716 81.365l0.047 0.107c13.367 31.467 20.258 65.301 20.258 99.486 0 34.189-6.891 68.023-20.258 99.488l-0.047 0.108c-12.787 30.414-31.373 58.048-54.716 81.365-12.506 12.49-12.514 32.751-0.026 45.255zM437.564 582.277c10.402 5.568 23.027 4.958 32.849-1.588l191.087-127.393c8.905-5.935 14.251-15.927 14.251-26.624 0-10.701-5.346-20.693-14.251-26.628l-191.087-127.394c-9.822-6.545-22.447-7.155-32.849-1.587-10.406 5.568-16.902 16.414-16.902 28.215v254.786c0 11.802 6.496 22.645 16.902 28.214zM484.659 494.272v-135.202l101.402 67.601-101.402 67.601z" />
<glyph unicode="&#xe940;" glyph-name="location" d="M512 810.667c-76.382 0-149.636-30.343-203.647-84.353s-84.353-127.264-84.353-203.647c0-132.48 73.979-253.107 152.147-343.002 38.694-44.497 77.468-80.375 106.579-105.118 11.511-9.783 21.474-17.796 29.274-23.881 7.799 6.084 17.762 14.097 29.274 23.881 29.111 24.742 67.887 60.621 106.577 105.118 78.17 89.894 152.149 210.522 152.149 343.002 0 76.382-30.345 149.636-84.352 203.647-54.012 54.010-127.266 84.353-203.648 84.353zM512 10.667c-18.351-26.214-18.359-26.21-18.368-26.202l-0.030 0.017-0.073 0.055-0.239 0.166-0.811 0.576c-0.691 0.495-1.681 1.207-2.94 2.125-2.526 1.843-6.153 4.531-10.722 8.026-9.139 6.985-22.076 17.207-37.542 30.353-30.892 26.257-72.116 64.384-113.423 111.885-81.832 94.106-167.853 229.478-167.853 384.998 0 93.356 37.085 182.889 103.098 248.902s155.545 103.098 248.902 103.098c93.355 0 182.891-37.085 248.9-103.098 66.014-66.013 103.1-155.545 103.1-248.902 0-155.52-86.020-290.893-167.851-384.998-41.31-47.501-82.534-85.628-113.425-111.885-15.467-13.146-28.403-23.369-37.542-30.353-4.57-3.494-8.196-6.182-10.722-8.026-1.259-0.917-2.249-1.63-2.94-2.125l-0.811-0.576-0.239-0.166-0.073-0.055-0.030-0.017c-0.009-0.009-0.017-0.013-18.368 26.202zM512 10.667l18.351-26.214c-11.017-7.714-25.685-7.714-36.702 0l18.351 26.214zM512 618.667c-53.018 0-96-42.981-96-96s42.982-96 96-96 96 42.982 96 96c0 53.019-42.982 96-96 96zM352 522.667c0 88.366 71.634 160 160 160s160-71.634 160-160c0-88.367-71.633-160-160-160s-160 71.633-160 160z" />
<glyph unicode="&#xe941;" glyph-name="lock" d="M687.979 730.667v-112h144c35.345 0 64-28.654 64-64v-448c0-35.345-28.655-64-64-64h-640c-35.346 0-64 28.655-64 64v448c0 35.346 28.654 64 64 64h144v112c0 95.861 80.139 176 176 176 95.863 0 176-80.139 176-176zM511.979 842.667c-61.001 0-112-50.997-112-112v-112h224v112c0 61.003-50.995 112-112 112zM191.979 554.667v-448h640v448h-640z" />
<glyph unicode="&#xe942;" glyph-name="log-in" d="M447.932 778.667c0-17.673 14.323-32 32-32h288.068v-640h-288.068c-17.677 0-32-14.327-32-32s14.323-32 32-32h288.068c16.973 0 33.254 6.741 45.257 18.743s18.743 28.284 18.743 45.257v640c0 16.974-6.741 33.252-18.743 45.255s-28.284 18.745-45.257 18.745h-288.068c-17.677 0-32-14.327-32-32zM353.373 617.294c-12.497-12.497-12.497-32.758 0-45.255l113.371-113.373h-370.743c-17.673 0-32-14.327-32-32s14.327-32 32-32h370.743l-113.371-113.374c-12.497-12.497-12.497-32.755 0-45.252s32.758-12.497 45.255 0l167.999 168c12.497 12.497 12.497 32.755 0 45.252l-167.999 168.001c-12.497 12.497-32.758 12.497-45.255 0z" />
<glyph unicode="&#xe943;" glyph-name="log-out" d="M146.662 791.922c-12.003-12.003-18.745-28.281-18.745-45.255v-640c0-16.973 6.743-33.254 18.745-45.257s28.281-18.743 45.255-18.743h288.070c17.673 0 32 14.327 32 32s-14.327 32-32 32h-288.070v640h288.070c17.673 0 32 14.327 32 32s-14.327 32-32 32h-288.070c-16.974 0-33.253-6.743-45.255-18.745zM673.886 617.294c-12.497-12.497-12.497-32.758 0-45.255l113.374-113.373h-370.746c-17.673 0-32-14.327-32-32s14.327-32 32-32h370.746l-113.374-113.374c-12.497-12.497-12.497-32.755 0-45.252s32.759-12.497 45.257 0l168 168c5.999 5.999 9.374 14.14 9.374 22.626s-3.375 16.627-9.374 22.626l-168 168.001c-12.497 12.497-32.759 12.497-45.257 0z" />
<glyph unicode="&#xe944;" glyph-name="mail" d="M96 714.667c0 17.673 14.327 32 32 32h768c17.673 0 32-14.327 32-32v-544c0-16.973-6.741-33.254-18.743-45.257s-28.284-18.743-45.257-18.743h-704c-16.974 0-33.252 6.741-45.255 18.743s-18.745 28.284-18.745 45.257v544zM210.266 682.667l301.734-276.591 301.734 276.591h-603.469zM864 641.923l-330.377-302.847c-12.233-11.213-31.014-11.213-43.247 0l-330.377 302.847v-471.256h704v471.256z" />
<glyph unicode="&#xe945;" glyph-name="megaphone" d="M724.062 732.854c0 12.5-7.279 23.857-18.637 29.076s-24.717 3.348-34.202-4.794c-112.896-96.891-252.208-118.711-321.445-123.17-38.636-2.488-76.903-1.937-116.477-1.367-17.444 0.252-35.142 0.506-53.238 0.506-51.596 0-91.929-22.042-118.655-55.593-26.072-32.73-38.179-74.947-38.179-115.706s12.107-82.978 38.179-115.708c22.53-28.284 54.729-48.388 95.192-54.003l66.744-196.403c3.064-9.015 9.984-16.201 18.878-19.597 8.895-3.401 18.841-2.658 27.135 2.018l98.193 55.356c10.061 5.67 16.285 16.324 16.285 27.874v128.201c108.064-6.579 203.915-46.903 286.654-122.428 9.365-8.546 22.891-10.761 34.492-5.641 11.597 5.116 19.081 16.597 19.081 29.278v542.1zM660.062 257.767c-82.172 58.598-174.865 90.398-276.227 95.881v219.078c69.148 7.638 176.305 30.216 276.227 96.053v-411.011zM271.529 152.807l-46.794 137.698h95.1v-110.464l-48.306-27.234zM319.835 568.584v-214.079h-139.772c-59.38 0-92.834 52.113-92.834 107.302 0 55.185 33.455 107.299 92.834 107.299 16.084 0 32.646-0.236 49.489-0.477 29.576-0.422 60.026-0.858 90.284-0.046zM942.49 691.135c-8.828 15.309-28.399 20.561-43.708 11.73s-20.561-28.399-11.729-43.708c34.633-60.046 52.868-128.145 52.868-197.465 0-69.316-18.231-137.417-52.868-197.461-8.832-15.309-3.58-34.876 11.729-43.708s34.88-3.58 43.708 11.729c40.243 69.769 61.431 148.898 61.431 229.44 0 80.546-21.188 159.673-61.431 229.443zM847.97 605.998c-8.87 15.286-28.454 20.487-43.738 11.616-15.287-8.87-20.489-28.453-11.618-43.739 19.772-34.072 30.187-72.768 30.187-112.163s-10.415-78.084-30.187-112.158c-8.87-15.287-3.669-34.867 11.618-43.738 15.283-8.87 34.867-3.674 43.738 11.614 25.434 43.831 38.831 93.606 38.831 144.282 0 50.678-13.397 100.454-38.831 144.285z" />
<glyph unicode="&#xe946;" glyph-name="minus" d="M131.209 426.667c0 21.798 17.67 39.467 39.467 39.467h682.667c21.798 0 39.467-17.668 39.467-39.467 0-21.794-17.668-39.467-39.467-39.467h-682.667c-21.797 0-39.467 17.673-39.467 39.467z" />
<glyph unicode="&#xe947;" glyph-name="more-horizontal" d="M256 341.334c-47.128 0-85.333 38.204-85.333 85.333s38.205 85.333 85.333 85.333c47.128 0 85.333-38.204 85.333-85.333s-38.205-85.333-85.333-85.333zM514.667 341.334c-47.13 0-85.333 38.204-85.333 85.333s38.204 85.333 85.333 85.333c47.13 0 85.333-38.204 85.333-85.333s-38.204-85.333-85.333-85.333zM856 426.667c0 47.13-38.204 85.333-85.333 85.333s-85.333-38.204-85.333-85.333c0-47.13 38.204-85.333 85.333-85.333s85.333 38.204 85.333 85.333z" />
<glyph unicode="&#xe948;" glyph-name="more-vertical" d="M598.665 169.336c0-47.13-38.204-85.333-85.333-85.333-47.125 0-85.333 38.204-85.333 85.333 0 47.125 38.208 85.333 85.333 85.333 47.13 0 85.333-38.208 85.333-85.333zM598.665 427.998c0-47.125-38.204-85.333-85.333-85.333-47.125 0-85.333 38.208-85.333 85.333 0 47.13 38.208 85.335 85.333 85.335 47.13 0 85.333-38.206 85.333-85.335zM513.331 769.334c-47.125 0-85.329-38.205-85.333-85.333 0-47.128 38.208-85.333 85.333-85.333 47.13 0 85.333 38.205 85.333 85.333s-38.204 85.333-85.333 85.333z" />
<glyph unicode="&#xe949;" glyph-name="new" d="M587.213 585.025c-16.764-5.588-25.826-23.711-20.237-40.477l85.333-256.001c4.356-13.065 16.585-21.879 30.357-21.879s26.001 8.815 30.357 21.879l54.976 164.928 54.976-164.928c4.356-13.065 16.585-21.879 30.357-21.879s26.001 8.815 30.357 21.879l85.333 256.001c5.589 16.766-3.473 34.889-20.237 40.477-16.768 5.589-34.889-3.472-40.478-20.239l-54.976-164.927-54.976 164.927c-4.356 13.067-16.585 21.881-30.357 21.881s-26.001-8.814-30.357-21.881l-54.976-164.927-54.976 164.927c-5.589 16.766-23.71 25.827-40.478 20.239zM75.214 585.025c-13.067-4.355-21.881-16.584-21.881-30.358v-256c0-17.673 14.327-32 32-32s32 14.327 32 32v160l134.4-179.2c8.264-11.021 22.652-15.514 35.719-11.157s21.881 16.585 21.881 30.357v256c0 17.673-14.327 32-32 32s-32-14.327-32-32v-160l-134.4 179.2c-8.264 11.019-22.652 15.514-35.719 11.158zM352 554.667v-256c0-17.673 14.327-32 32-32h128c17.673 0 32 14.327 32 32s-14.327 32-32 32h-96v64h74.667c17.673 0 32 14.327 32 32s-14.327 32-32 32h-74.667v64h96c17.673 0 32 14.327 32 32s-14.327 32-32 32h-128c-17.673 0-32-14.327-32-32zM245.333 842.667c-64.801 0-117.333-52.532-117.333-117.333v-32.052c0-17.673 14.327-32 32-32s32 14.327 32 32v32.052c0 29.455 23.878 53.333 53.333 53.333h533.461c29.453 0 53.333-23.878 53.333-53.333v-32.052c0-17.673 14.323-32 32-32 17.673 0 32 14.327 32 32v32.052c0 64.801-52.535 117.333-117.333 117.333h-533.461zM192 170.667c0 17.673-14.327 32-32 32s-32-14.327-32-32v-32.051c0-64.802 52.532-117.333 117.333-117.333h533.461c64.798 0 117.333 52.531 117.333 117.333v32.051c0 17.673-14.327 32-32 32-17.677 0-32-14.327-32-32v-32.051c0-29.457-23.881-53.333-53.333-53.333h-533.461c-29.455 0-53.333 23.876-53.333 53.333v32.051z" />
<glyph unicode="&#xe94a;" glyph-name="newtab" d="M645.333 810.671c0.004 17.673 14.332 31.998 32.004 31.996l239.966-0.032c17.673-0.003 31.996-14.326 32-31.996l0.030-239.968c0.004-17.673-14.323-32.002-31.996-32.004s-32 14.323-32.004 31.996l-0.021 162.728-233.476-233.478c-12.497-12.497-32.759-12.497-45.257 0s-12.497 32.76 0 45.257l233.476 233.476-162.726 0.022c-17.673 0.003-32 14.331-31.996 32.004zM200.079 695.922c12.002 12.002 28.281 18.745 45.255 18.745h256c17.673 0 32-14.327 32-32s-14.327-32-32-32h-256v-512h512v256c0 17.673 14.327 32 32 32s32-14.327 32-32v-256c0-16.973-6.741-33.254-18.743-45.257s-28.284-18.743-45.257-18.743h-512c-16.974 0-33.252 6.741-45.255 18.743s-18.745 28.284-18.745 45.257v512c0 16.974 6.743 33.253 18.745 45.255v0z" />
<glyph unicode="&#xe94b;" glyph-name="no-license" d="M241.493 651.914l495.753-495.754c-61.039-50.884-139.567-81.493-225.246-81.493-194.404 0-352 157.598-352 352 0 85.679 30.611 164.207 81.493 225.247zM215.947 718.914c-74.166-75.126-119.947-178.34-119.947-292.247 0-229.751 186.249-416 416-416 113.929 0 217.161 45.798 292.288 119.987 0.666 0.563 1.31 1.161 1.937 1.783 0.623 0.627 1.216 1.271 1.779 1.933 74.197 75.132 119.996 178.364 119.996 292.297 0 229.751-186.249 416-416 416-113.91 0-217.127-45.783-292.253-119.952-0.678-0.574-1.339-1.181-1.978-1.821s-1.248-1.3-1.822-1.979zM286.747 697.169c61.040 50.885 139.572 81.498 225.253 81.498 194.402 0 352-157.596 352-352 0-85.683-30.613-164.211-81.498-225.254l-495.755 495.757z" />
<glyph unicode="&#xe94c;" glyph-name="page-menu" d="M128 666.667c0-17.673 14.327-32 32-32h512c17.673 0 32 14.327 32 32s-14.327 32-32 32h-512c-17.673 0-32-14.327-32-32zM128 506.667c0-17.673 14.327-32 32-32h704c17.673 0 32 14.327 32 32s-14.327 32-32 32h-704c-17.673 0-32-14.327-32-32zM128 346.667c0-17.673 14.327-32 32-32h512c17.673 0 32 14.327 32 32s-14.327 32-32 32h-512c-17.673 0-32-14.327-32-32zM128 186.667c0-17.673 14.327-32 32-32h704c17.673 0 32 14.327 32 32s-14.327 32-32 32h-704c-17.673 0-32-14.327-32-32z" />
<glyph unicode="&#xe94d;" glyph-name="paypal" d="M607.386 853.334c114.325 0 202.978-93.45 202.739-202.681 63.155-39.318 100.211-115.208 84.19-194.725l-0.128-0.602-5.265-23.761c-25.967-117.21-129.89-200.627-249.937-200.627h-94.357l-33.438-203.217c-2.543-15.458-15.906-26.803-31.573-26.803h-132.165c-32.848 0-57.888 29.41-52.651 61.837l4.127 25.553h-117.456c-32.839 0-57.876 29.393-52.655 61.815l103.14 640.416c5.828 36.188 37.062 62.795 73.716 62.795h301.713zM305.675 789.334c-5.236 0-9.699-3.801-10.531-8.971l-101.149-628.055h115.262l74.854 463.444c5.842 36.174 37.070 62.762 73.71 62.762h254.281c10.85 0 21.444-0.918 31.727-2.675-11.691 63.366-67.179 113.495-136.439 113.495h-301.715zM712.102 614.514h-254.281c-5.231 0-9.694-3.798-10.53-8.966l-30.691-190.047h97.542c116.745 0 203.853 85.572 226.667 195.636-9.173 2.204-18.778 3.377-28.706 3.377zM452.45 64.918l30.498 185.348c4.241 25.766 26.513 44.672 52.625 44.672h103.411c90.035 0 167.979 62.566 187.456 150.468 10.607 47.872 9.549 94.844-27.243 132.492-30.729-132.329-148.736-226.397-285.056-226.397h-107.749l-46.412-286.583h92.469z" />
<glyph unicode="&#xe94e;" glyph-name="pencil-line" d="M647.283 824.451c7.829 3.278 16.23 4.966 24.717 4.966s16.887-1.688 24.717-4.966c7.787-3.26 14.848-8.027 20.783-14.027 0.034-0.033 0.068-0.067 0.102-0.1l178.052-178.054c0.034-0.034 0.068-0.067 0.102-0.102 5.999-5.934 10.765-12.997 14.025-20.78 3.277-7.828 4.966-16.231 4.966-24.718s-1.69-16.89-4.966-24.718c-3.26-7.785-8.026-14.847-14.025-20.782-0.034-0.034-0.068-0.067-0.102-0.101l-434.398-434.399h402.743c17.673 0 32-14.327 32-32s-14.327-32-32-32h-672c-16.974 0-33.252 6.741-45.255 18.743s-18.745 28.284-18.745 45.257v174.323c0 19.806 7.866 38.797 21.869 52.8l476.631 476.629c5.935 6 12.996 10.768 20.783 14.028zM383.974 119.898l338.769 338.773-178.743 178.744-338.77-338.77 178.744-178.748zM192 221.364v-114.692h114.694l-114.694 114.692zM589.257 682.67l178.743-178.747 82.748 82.748-0.175 0.171-178.573 178.574-0.171-0.174-82.573-82.572z" />
<glyph unicode="&#xe94f;" glyph-name="pencil" d="M672 829.419c-8.486 0-16.887-1.688-24.717-4.966-7.787-3.26-14.852-8.028-20.787-14.028l-489.123-489.129c-6.001-5.999-9.373-14.14-9.373-22.626v-192c0-16.973 6.743-33.25 18.745-45.252s28.281-18.748 45.255-18.748h174.327c19.803 0 38.795 7.868 52.797 21.871l476.633 476.631c5.999 5.935 10.765 12.997 14.025 20.782 3.277 7.828 4.966 16.23 4.966 24.718s-1.69 16.89-4.966 24.718c-3.26 7.784-8.026 14.846-14.025 20.781l-0.102 0.101-178.155 178.153c-5.935 6-12.996 10.767-20.783 14.028-7.829 3.278-16.23 4.966-24.717 4.966zM768 503.928l-178.743 178.745 82.743 82.746 178.748-178.745-82.748-82.747zM205.229 298.646l338.771 338.771 178.743-178.746-338.77-338.769-178.744 178.743zM192 221.364l114.692-114.692h-114.692v114.692z" />
<glyph unicode="&#xe950;" glyph-name="percent" d="M304 714.667c-44.183 0-80-35.817-80-80s35.817-80 80-80c44.183 0 80 35.817 80 80s-35.817 80-80 80zM160 634.667c0 79.529 64.471 144 144 144s144-64.471 144-144c0-79.529-64.471-144-144-144s-144 64.471-144 144zM777.374 737.294l-576.001-576.001c-12.497-12.497-12.497-32.755 0-45.252s32.758-12.497 45.255 0l575.999 575.999c12.497 12.497 12.497 32.758 0 45.255s-32.755 12.497-45.252 0zM720 298.667c-44.181 0-80-35.819-80-80s35.819-80 80-80c44.181 0 80 35.819 80 80s-35.819 80-80 80zM576 218.667c0 79.531 64.469 144 144 144s144-64.469 144-144c0-79.531-64.469-144-144-144s-144 64.469-144 144z" />
<glyph unicode="&#xe951;" glyph-name="phone" d="M331.199 777.337c0.049-0.020 0.111-0.049 0.18-0.089 0.074-0.043 0.132-0.084 0.175-0.118l80.267-187.29-66.506-101.617c-12.224-18.526-13.87-42.633-4.27-62.647h-0.001l0.108-0.222c36.342-74.3 96.569-134.251 171.031-170.253v0l0.226-0.111c20.134-9.54 44.335-7.727 62.827 4.702 0.030 0.021 0.060 0.038 0.090 0.060l99.998 66.679 187.127-80.196c0.034-0.043 0.073-0.102 0.115-0.175 0.043-0.068 0.073-0.132 0.090-0.179-5.039-38.404-23.842-73.685-52.924-99.29-59.738-52.591-145.916-55.458-237.376-27.072-90.807 28.186-178.224 84.937-230.402 137.118-52.178 52.177-108.931 139.593-137.116 230.4-28.388 91.46-25.521 177.638 27.072 237.377 25.603 29.082 60.883 47.883 99.288 52.924zM390.302 802.521c-10.995 25.815-38.603 41.768-66.461 38.397v0.001l-0.212-0.027c-54.057-6.908-103.743-33.283-139.755-74.188-74.215-84.299-71.337-198.19-40.159-298.641 31.382-101.107 93.75-197.449 152.984-256.683s155.575-121.604 256.683-152.986c100.45-31.177 214.34-34.057 298.641 40.162 40.905 36.011 67.281 85.696 74.189 139.755l0.026 0.209c3.371 27.866-12.587 55.479-38.413 66.466-0.013 0.009-0.026 0.013-0.038 0.017l-187.251 80.252c-19.729 8.457-42.863 6.332-60.719-5.577l-100.1-66.748c-0.017-0.004-0.034-0.004-0.051-0.009-0.017 0-0.030 0-0.043 0-61.231 29.722-110.78 79.044-140.776 140.139 0 0.013 0.001 0.026 0.002 0.043s0.003 0.034 0.006 0.051l66.52 101.638c11.648 17.798 13.653 40.707 5.274 60.258l-80.323 187.418c-0.008 0.017-0.015 0.035-0.023 0.053zM606.758 786.983c-4.591-17.067 5.525-34.623 22.592-39.213 48.832-13.133 93.359-38.867 129.114-74.624 35.759-35.757 61.491-80.282 74.624-129.115 4.591-17.067 22.148-27.181 39.215-22.591s27.179 22.146 22.588 39.213c-16.043 59.663-47.484 114.062-91.17 157.748s-98.086 75.127-157.751 91.173c-17.067 4.59-34.62-5.524-39.211-22.591zM573.632 663.316c-4.587-17.067 5.525-34.623 22.592-39.212 27.136-7.298 51.874-21.597 71.744-41.465 19.866-19.869 34.167-44.609 41.463-71.744 4.591-17.067 22.144-27.179 39.215-22.588 17.067 4.587 27.179 22.144 22.588 39.211-10.21 37.964-30.217 72.578-58.014 100.376s-62.413 47.804-100.373 58.014c-17.067 4.59-34.624-5.524-39.215-22.592z" />
<glyph unicode="&#xe952;" glyph-name="pin" d="M615.292 856.451c7.829 3.278 16.235 4.966 24.721 4.966s16.887-1.688 24.717-4.966c7.787-3.26 14.848-8.027 20.783-14.027 0.034-0.033 0.068-0.067 0.098-0.1l242.057-242.054c0.034-0.035 0.068-0.070 0.102-0.104 5.999-5.934 10.765-12.995 14.025-20.778 3.277-7.828 4.962-16.231 4.962-24.718s-1.685-16.89-4.962-24.718c-3.26-7.783-8.026-14.844-14.025-20.777-0.034-0.034-0.068-0.073-0.102-0.107l-233.677-233.677c37.385-101.892-20.851-197.734-52.86-240.030-5.525-7.326-12.565-13.38-20.634-17.745-8.098-4.386-17.050-6.967-26.24-7.578-9.19-0.606-18.402 0.777-27.008 4.053-8.555 3.26-16.311 8.32-22.746 14.831-0.038 0.038-0.077 0.077-0.115 0.115l-192.381 192.38-137.38-137.378c-12.497-12.497-32.758-12.497-45.255 0s-12.497 32.755 0 45.252l137.38 137.382-193.271 193.271c-0.017 0.017-0.035 0.034-0.053 0.051-6.362 6.323-11.323 13.909-14.564 22.272-3.249 8.388-4.695 17.365-4.242 26.347 0.453 8.983 2.794 17.77 6.871 25.786s9.797 15.085 16.788 20.743c66.189 53.486 131.522 65.498 180.908 63.293 24.411-1.090 44.637-5.621 58.939-9.958 0.633-0.192 1.254-0.384 1.865-0.575l234.516 234.518c5.935 6 13.001 10.767 20.783 14.027zM353.846 541.977l-0.399 0.186c-0.468 0.213-1.32 0.592-2.533 1.088-2.43 0.993-6.28 2.446-11.357 3.985-10.185 3.088-25.085 6.458-43.223 7.267-35.711 1.594-85.188-6.605-137.793-49.107 0 0 0 0 0 0l431.551-431.415c32.934 43.52 74.21 120.875 37.321 194.33-6.187 12.326-3.785 27.234 5.969 36.988l249.374 249.374-242.744 242.745-0.175-0.174-249.199-249.199c-9.702-9.702-24.504-12.134-36.793-6.066z" />
<glyph unicode="&#xe953;" glyph-name="player-m" d="M432 746.667c-114.658 0-207.607-92.949-207.607-207.607s92.949-207.608 207.607-207.608c114.658 0 207.607 92.949 207.607 207.608s-92.949 207.607-207.607 207.607zM160.393 539.060c0 150.004 121.603 271.607 271.607 271.607s271.607-121.603 271.607-271.607c0-97.187-51.042-182.447-127.782-230.443 20.105-6.315 39.821-13.961 59.017-22.912 63.522-29.615 119.787-72.777 164.843-126.46 11.362-13.538 9.596-33.719-3.938-45.082-13.538-11.362-33.724-9.6-45.086 3.938-39.049 46.524-87.812 83.934-142.861 109.598-55.053 25.668-115.055 38.967-175.795 38.967s-120.744-13.299-175.795-38.967c-55.051-25.664-103.815-63.074-142.865-109.598-11.362-13.534-31.546-15.3-45.083-3.938s-15.299 31.548-3.937 45.086c45.057 53.679 101.322 96.845 164.842 126.46 19.194 8.947 38.909 16.593 59.012 22.903-76.741 47.996-127.785 133.261-127.785 230.447zM768 394.667c0-17.673 14.327-32 32-32h192c17.673 0 32 14.327 32 32s-14.327 32-32 32h-192c-17.673 0-32-14.327-32-32z" />
<glyph unicode="&#xe954;" glyph-name="player-p" d="M432 746.667c-114.155 0-206.696-92.541-206.696-206.696 0-114.153 92.541-206.697 206.696-206.697s206.694 92.544 206.694 206.697c0 114.155-92.54 206.696-206.694 206.696zM161.304 539.971c0 149.501 121.195 270.696 270.696 270.696s270.694-121.195 270.694-270.696c0-97.552-51.601-183.052-128.998-230.693 20.843-6.438 41.271-14.306 61.146-23.573 63.522-29.615 119.787-72.777 164.843-126.46 11.362-13.538 9.596-33.719-3.938-45.082-13.538-11.362-33.724-9.6-45.086 3.938-39.049 46.524-87.812 83.934-142.861 109.598-55.053 25.668-115.055 38.967-175.795 38.967s-120.744-13.299-175.795-38.967c-55.051-25.664-103.815-63.074-142.865-109.598-11.362-13.534-31.546-15.3-45.083-3.938s-15.299 31.548-3.937 45.086c45.057 53.679 101.322 96.845 164.842 126.46 19.871 9.263 40.301 17.131 61.141 23.569-77.399 47.642-129.002 133.141-129.002 230.693zM896 522.667c-17.673 0-32-14.327-32-32v-64h-64c-17.673 0-32-14.327-32-32s14.327-32 32-32h64v-64c0-17.673 14.327-32 32-32s32 14.327 32 32v64h64c17.673 0 32 14.327 32 32s-14.327 32-32 32h-64v64c0 17.673-14.327 32-32 32z" />
<glyph unicode="&#xe955;" glyph-name="plus" d="M512.009 818.136c21.798 0 39.467-17.67 39.467-39.467v-312.535h312.533c21.798 0 39.467-17.668 39.467-39.467 0-21.794-17.668-39.467-39.467-39.467h-312.533v-312.533c0-21.794-17.668-39.462-39.467-39.462s-39.467 17.668-39.467 39.462v312.533h-312.533c-21.797 0-39.467 17.673-39.467 39.467 0 21.798 17.67 39.467 39.467 39.467h312.533v312.535c0 21.797 17.668 39.467 39.467 39.467z" />
<glyph unicode="&#xe956;" glyph-name="rating" d="M511.974 842.5c-158.964 0-287.828-128.865-287.828-287.828s128.865-287.83 287.828-287.83c158.963 0 287.829 128.866 287.829 287.83s-128.866 287.828-287.829 287.828zM160.146 554.672c0 194.309 157.519 351.828 351.828 351.828s351.829-157.519 351.829-351.828c0-109.159-49.711-206.704-127.731-271.237 0.004-0.102 0.004-0.209 0.004-0.311v-304.452c0-11.085-5.739-21.38-15.164-27.213-9.429-5.833-21.201-6.37-31.121-1.421l-177.92 88.747-177.478-88.734c-9.92-4.958-21.7-4.429-31.134 1.399-9.434 5.833-15.177 16.132-15.177 27.221v304.452c0 0.047 0 0.094 0 0.141-78.138 64.529-127.938 162.155-127.938 271.408zM352.083 241.191v-210.743l145.461 72.73c8.998 4.497 19.593 4.501 28.595 0.013l145.937-72.794v210.901c-48.026-24.585-102.443-38.455-160.102-38.455-57.574 0-111.918 13.833-159.891 38.349zM511.974 714.815c-88.447 0-160.146-71.699-160.146-160.145 0-88.443 71.699-160.145 160.146-160.145 88.444 0 160.141 71.701 160.141 160.145s-71.697 160.145-160.141 160.145zM287.828 554.671c0 123.792 100.353 224.145 224.146 224.145 123.789 0 224.141-100.353 224.141-224.145s-100.352-224.145-224.141-224.145c-123.793 0-224.146 100.352-224.146 224.145z" />
<glyph unicode="&#xe957;" glyph-name="reliability" d="M113.704 804.745c-12.003-12.003-18.745-28.281-18.745-45.255v-234.8c0-357.952 303.906-476.421 363.499-496.231 13.257-4.749 27.746-4.749 40.998 0 55.377 18.406 320.508 121.31 358.912 422.366 0.119 0.926 0.26 1.954 0.414 3.072 0.371 2.709 0.815 5.939 1.178 9.489 1.775 17.583-11.038 33.28-28.621 35.059s-33.276-11.034-35.055-28.617c-0.252-2.475-0.439-3.836-0.713-5.786-0.179-1.289-0.393-2.829-0.687-5.12-33.395-261.79-264.866-352.926-315.925-369.835-55.211 18.283-320 122.556-320 435.601v234.8h523.281c17.673 0 32 14.327 32 32s-14.327 32-32 32h-523.281c-16.974 0-33.253-6.743-45.255-18.745zM918.899 782.411c-12.51 12.481-32.772 12.456-45.252-0.057l-404.425-405.441-191.298 190.862c-12.511 12.483-32.772 12.46-45.255-0.052s-12.46-32.772 0.051-45.255l213.952-213.468c6.012-5.995 14.153-9.357 22.643-9.344 8.486 0.009 16.623 3.392 22.618 9.399l427.025 428.1c12.48 12.512 12.454 32.774-0.060 45.255z" />
<glyph unicode="&#xe958;" glyph-name="replace" d="M512.009 746.625c42.010 0 83.605-8.282 122.415-24.372 38.805-16.091 74.057-39.674 103.74-69.401l81.233-80.992h-114.586c-17.673 0-32-14.327-32-32s14.327-31.998 32-31.998h192c17.677 0 32 14.325 32 31.998v192c0 17.673-14.323 32-32 32-17.673 0-32-14.327-32-32v-114.906l-81.378 81.141c0.004-0.007-0.009 0.007 0 0-35.627 35.67-77.931 63.968-124.497 83.277-46.579 19.313-96.503 29.253-146.927 29.253s-100.35-9.94-146.927-29.253c-46.577-19.313-88.889-47.619-124.517-83.299-12.488-12.506-12.473-32.767 0.033-45.255s32.767-12.473 45.255 0.033c29.684 29.727 64.937 53.31 103.743 69.401 38.804 16.090 80.404 24.372 122.414 24.372zM95.209 313.464v-192c0-17.673 14.327-32 32-32s32 14.327 32 32v114.906l81.381-81.139c0.008-0.009-0.009 0.004 0 0 35.622-35.669 77.926-63.966 124.492-83.277 46.577-19.311 96.503-29.252 146.927-29.252s100.348 9.941 146.927 29.252c46.575 19.315 88.887 47.62 124.518 83.298 12.484 12.506 12.471 32.768-0.034 45.257s-32.768 12.471-45.257-0.034c-29.683-29.726-64.934-53.308-103.74-69.402-38.81-16.090-80.405-24.371-122.415-24.371s-83.61 8.282-122.414 24.371c-38.806 16.094-74.059 39.676-103.743 69.402l-81.228 80.99h114.584c17.673 0 32 14.327 32 32s-14.327 32-32 32h-192c-17.673 0-32-14.327-32-32z" />
<glyph unicode="&#xe959;" glyph-name="right" d="M398.768 774.576c15.413 15.413 40.4 15.413 55.816 0l320-320.001c15.411-15.411 15.411-40.401 0-55.812l-320-320c-15.415-15.415-40.403-15.415-55.816 0-15.412 15.411-15.412 40.401 0 55.812l292.091 292.092-292.091 292.095c-15.412 15.412-15.412 40.401 0 55.814z" />
<glyph unicode="&#xe95a;" glyph-name="rss-feed" d="M192 746.688c-0.012-17.673 14.306-32.009 31.979-32.021 152.739-0.1 299.195-60.82 407.197-168.823s168.721-254.46 168.823-407.198c0.013-17.673 14.349-31.991 32.021-31.979s31.991 14.349 31.979 32.021c-0.111 169.698-67.575 332.416-187.567 452.41-119.996 119.995-282.713 187.457-452.412 187.569-17.673 0.012-32.009-14.306-32.021-31.979zM192 458.667c0-17.673 14.327-32 32-32 37.821 0 75.271-7.45 110.213-21.922s66.691-35.686 93.435-62.43c26.743-26.743 47.957-58.492 62.43-93.436 14.473-34.94 21.922-72.393 21.922-110.212 0-17.673 14.327-32 32-32s32 14.327 32 32c0 46.225-9.105 91.998-26.795 134.703-17.69 42.709-43.618 81.51-76.305 114.197s-71.489 58.615-114.196 76.305c-42.707 17.69-88.479 26.795-134.705 26.795-17.673 0-32-14.327-32-32zM224 90.667c26.51 0 48 21.491 48 48s-21.49 48-48 48c-26.51 0-48-21.491-48-48s21.49-48 48-48z" />
<glyph unicode="&#xe95b;" glyph-name="save" d="M146.745 791.922c12.002 12.002 28.281 18.745 45.255 18.745h480c8.486 0 16.627-3.372 22.626-9.373l192-192c6.003-6.001 9.374-14.141 9.374-22.627v-480c0-16.973-6.741-33.254-18.743-45.257s-28.284-18.743-45.257-18.743h-640c-16.974 0-33.252 6.741-45.255 18.743s-18.745 28.284-18.745 45.257v640c0 16.974 6.743 33.253 18.745 45.255zM352 106.667h320v224h-320v-224zM736 106.667h96v466.745l-173.257 173.255h-466.743v-640h96v224c0 16.973 6.743 33.254 18.745 45.257s28.281 18.743 45.255 18.743h320c16.973 0 33.254-6.741 45.257-18.743s18.743-28.284 18.743-45.257v-224zM352 650.667c0 17.673 14.327 32 32 32h224c17.673 0 32-14.327 32-32s-14.327-32-32-32h-224c-17.673 0-32 14.327-32 32z" />
<glyph unicode="&#xe95c;" glyph-name="search" d="M464 778.667c-167.895 0-304-136.105-304-304 0-167.893 136.105-304 304-304 167.893 0 304 136.107 304 304 0 167.895-136.107 304-304 304zM96 474.667c0 203.241 164.759 368 368 368 203.243 0 368-164.759 368-368 0-90.099-32.38-172.634-86.135-236.604l172.766-172.766c12.497-12.497 12.497-32.759 0-45.257s-32.755-12.497-45.252 0l-172.766 172.766c-63.974-53.76-146.513-86.14-236.612-86.14-203.241 0-368 164.757-368 368z" />
<glyph unicode="&#xe95d;" glyph-name="security" d="M146.745 759.922c12.002 12.002 28.281 18.745 45.255 18.745h640c16.973 0 33.254-6.743 45.257-18.745s18.743-28.281 18.743-45.255v-234.799c0-18.633-0.823-36.612-2.394-53.965-0.034-1.545-0.179-3.063-0.427-4.544-30.801-312.542-304.461-419.034-360.683-437.726-13.252-4.745-27.742-4.745-40.994 0-56.252 18.701-330.205 125.308-360.736 438.281-0.167 1.122-0.276 2.266-0.323 3.422-1.603 17.527-2.444 35.699-2.444 54.532v234.799c0 16.974 6.743 33.253 18.745 45.255zM199.022 394.667c36.082-210.859 202.001-304.913 280.978-338.27v338.27h-280.978zM480 458.667v256h-288v-234.799c0-7.177 0.139-14.242 0.412-21.201h287.588zM544 394.667v-338.27c78.976 33.357 244.898 127.411 280.977 338.27h-280.977zM831.59 458.667c0.269 6.959 0.41 14.025 0.41 21.201v234.799h-288v-256h287.59z" />
</font>
</defs>
</svg>
